img image001 image001 image001 image001 image001 image001 image001 image001 image001 image001 image001 image001 image001 image001 image001

Planets Sun Sun Sun
Статистика раздачи
Автор: Снежана | Размер: 1.46 ГБ | Добавлен: 25 июл 2013
Раздают: 10    Качают: 4
Скачать торрент
Скачать торрент
Описание торрента

СообщениеДобавлено: 25 июл 2013 

#77
Год выпуска: 2012
Выпущено: Германия, Великобритания, ЮАР / Film Afrika Worldwide CC, Scott Free Productions, Tandem Communications

Жанр: фэнтези, драма, приключения
Продолжительность: 01:31:46 + 01:35:30

Перевод: Профессиональный (многоголосый, закадровый) "Lizard Cinema Trade"
Оригинальная аудиодорожка: нет
Субтитры: нет

Режиссер: Кристофер Смит / Maria Estrada

В ролях: Джон Хёрт, Том Фелтон, Джессика Браун-Финдли, Тони Карран, Ванесса Кирби, Джон Линч, Себастьян Стэн, Джанет Сузман, Ст. Джон Александр, Орели Баржем...

Описание: Те люди, которые оказываются в этом лабиринте, могут больше никогда не выбраться из него, ведь он хранит в себе множество тайн и загадок, разгадать которые не под силу даже самым осведомленным и грамотным специалистам. Сериал представляет собой увлекательное приключение, объединяющее две сюжетные линии. В современной — археолог Элис Таннер занята раскопками на юге Франции, пытаясь в подземных лабиринтах Каркасона раскрыть тайну исчезновения религиозного движения катаров, которые, согласно легенде, являлись хранителями Святого Грааля. В Средневековой — молодая девушка из XIII века пытается понять символы и диаграммы трех вверенных ей священных книг и сохранить свою жизнь.






Качество видео: HDRip [BDRip 1080p]
Формат видео: AVI

Видео: 656x368 (16:9), XviD 975 Кбит/сек 25,000 fps / Бит/(Пиксели*Кадры): 0.162
Аудио: MP3 Audio Russian 128 kbps 2.0 / 48 kHz

Раздача от:
General
Complete name : Labirint.s01.2012.P.HDRip.745MB_[Youtracker]_by_avproh1.avi
Format : AVI
Format/Info : Audio Video Interleave
File size : 730 MiB
Duration : 1h 31mn
Overall bit rate : 1 112 Kbps
Writing application : VirtualDubModRus 1.5.10.2 (build 2542/release)
Writing library : VirtualDubMod build 2542/release

Video
ID : 0
Format : MPEG-4 Visual
Format profile : Advanced Simple@L5
Format settings, BVOP : 1
Format settings, QPel : No
Format settings, GMC : No warppoints
Format settings, Matrix : Custom
Codec ID : XVID
Codec ID/Hint : XviD
Duration : 1h 31mn
Bit rate : 975 Kbps
Width : 656 pixels
Height : 368 pixels
Display aspect ratio : 16:9
Frame rate : 25.000 fps
Color space : YUV
Chroma subsampling : 4:2:0
Bit depth : 8 bits
Scan type : Progressive
Compression mode : Lossy
Bits/(Pixel*Frame) : 0.162
Stream size : 640 MiB (88%)
Writing library : XviD 65

Audio
ID : 1
Format : MPEG Audio
Format version : Version 1
Format profile : Layer 3
Mode : Joint stereo
Mode extension : MS Stereo
Codec ID : 55
Codec ID/Hint : MP3
Duration : 1h 31mn
Bit rate mode : Constant
Bit rate : 128 Kbps
Channel(s) : 2 channels
Sampling rate : 48.0 KHz
Compression mode : Lossy
Stream size : 84.0 MiB (12%)
Alignment : Aligned on interleaves
Interleave, duration : 40 ms (1.00 video frame)
Interleave, preload duration : 504 ms





   Похожие торренты   Торрент   Размер 
В этой теме нет новых непрочитанных сообщений. Лабиринт / Labyrinth [S01] (2012) HDRip от Youtracker | P | лицензия

9 | 4

2.91 ГБ

В этой теме нет новых непрочитанных сообщений. Лабиринт / Labyrinth [S01] (2012) HDRip-AVC от Youtracker | P | лицензия

3 | 3

4.38 ГБ

В этой теме нет новых непрочитанных сообщений. Лабиринт / Labyrinth [S01] (2012) DVD9 R5 от Youtracker | P | лицензия

2 | 2

7.62 ГБ

В этой теме нет новых непрочитанных сообщений. Лабиринт / Labyrinth [S01] (2012) BDRip 1080p от Youtracker | P | лицензия

3 | 2

17.76 ГБ

В этой теме нет новых непрочитанных сообщений. Лабиринт / Labyrinth [S01] (2012) BDRip 720p от Youtracker | P | лицензия

5 | 4

8.42 ГБ

В этой теме нет новых непрочитанных сообщений. National Geographic: Погружение в лабиринт / Diving the Labyrinth / Blue Holes. Tauchen im Labyrinth (2010) HDRip от R.G.RealMT

2 | 3

774.65 МБ

В этой теме нет новых непрочитанных сообщений. National Geographic: Погружение в лабиринт / Diving The Labyrinth / Blue Holes. Tauchen im Labyrinth (2010) HDRip от Generalfilm

4 | 17

1.36 ГБ




Вы не можете начинать темы
Вы не можете отвечать на сообщения
Вы не можете редактировать свои сообщения
Вы не можете удалять свои сообщения
Вы не можете добавлять вложения

Перейти:  
Для Мосгорсуда, Роскомнадзора и рекламодателей: mosgorsud-torrent[собачка]yandex.ru
 Вход
ppkBB3cker v.2 © 2008-2014 @ PPK
[ Time : 0.703s | 14 Queries | GZIP : On ]

Торрент трекер RUTOR.IN, Не можете зайти на rutor.org? Какой новый адрес рутор? Какое зеркало рутор? Не работает rutor.org и зеркала? Тогда наш торрент специально для вас. Rutor.in неофициальное зеркало rutor. В случае если у Вас заблокирован rutor или вдруг Вы не можете на него зайти, то Вы без труда сможете скачать бесплатно и без рекламы последние новинки кино, игр, сериалов и прочего у нас, на Rutor.in. Не нужно использовать прокси, чтобы зайти на рутор, достаточно воспользоваться нашим ресурсом. Все новые фильмы, игры, сериалы, книги и музыка за 2013 и 2014 годы через торрент бесплатно. Скачивайте фильмы в хорошем качестве, игры для пк, xbox, playstation без регистрации. У нас вы найдете новые Зарубежные сериалы и Русские сериалы 2013, 2014, 2015 годов. Оставайтесь с нами, качайте любимые фильмы, игры, сериалы, книги и музыку.