img image001 image001 image001 image001 image001 image001 image001 image001 image001 image001 image001 image001 image001 image001 image001

Planets Sun Sun Sun
Статистика раздачи
Автор: Снежана | Размер: 4.98 ГБ | Добавлен: 25 июл 2013
Раздают: 11    Качают: 7
Скачать торрент
Скачать торрент
Описание торрента

СообщениеДобавлено: 25 июл 2013 

#77
Год выпуска: 2010
Страна: США, Мексика
Жанр: триллер, драма, детектив
Продолжительность: 00:43:00
Перевод: Профессиональный многоголосый закадровый (LostFilm)
Русские субтитры: нет

Режиссёр: Билл Иглз / Bill Eagles, Джонатан Фрейкс / Jonathan Frakes, Майкл Раймер / Michael Rymer

В ролях: Джейсон Уайлз, Дэйзи Беттс, Чэдвик Боузман, Лола Глаудини, Тина Холмс, Кейт Лэнг Джонсон, Джералд Кид, Шон О’Брайан, Алан Рак, Кэндис МакКлюр

Описание: Группа незнакомых людей, просыпается в заброшенном городе, не помня, как туда попали. Они обнаруживают, что за ними наблюдают камеры безопасности. Чтобы сбежать, они должны сообща решить сюрреалистическую головоломку.

Сэмпл: http://multi-up.com/847161
Качество: WEB-DLRip
Формат: AVI

Видео: 640x368 (16/9), 23.976 fps, XViD ~1 148 Kbps (0.203 bit/pixel)
Аудио: Русский: 48 kHz, MPEG Layer 3, 2 ch, ~128.00 kbps constant

Раздача от: Релизер: Roman

General
Complete name : ..Persons UnknownSeason 1\01 – Pilot.avi
Format : AVI
Format/Info : Audio Video Interleave
File size : 391 MiB
Duration : 42mn 27s
Overall bit rate : 1 289 Kbps
Writing application : Nandub v1.0rc2
Writing library : Nandub build 1853/release

Video
ID : 0
Format : MPEG-4 Visual
Format profile : Advanced Simple@L5
Format settings, BVOP : 1
Format settings, QPel : No
Format settings, GMC : No warppoints
Format settings, Matrix : Custom
Codec ID : XVID
Codec ID/Hint : XviD
Duration : 42mn 27s
Bit rate : 1 148 Kbps
Width : 640 pixels
Height : 368 pixels
Display aspect ratio : 1.739
Frame rate : 23.976 fps
Color space : YUV
Chroma subsampling : 4:2:0
Bit depth : 8 bits
Scan type : Progressive
Compression mode : Lossy
Bits/(Pixel*Frame) : 0.203
Stream size : 349 MiB (89%)
Writing library : XviD 1.2.1 (UTC 2008-12-04)

Audio
ID : 1
Format : MPEG Audio
Format version : Version 1
Format profile : Layer 3
Mode : Joint stereo
Mode extension : MS Stereo
Codec ID : 55
Codec ID/Hint : MP3
Duration : 42mn 27s
Bit rate mode : Constant
Bit rate : 128 Kbps
Channel(s) : 2 channels
Sampling rate : 48.0 KHz
Compression mode : Lossy
Stream size : 38.9 MiB (10%)
Alignment : Aligned on interleaves
Interleave, duration : 24 ms (0.58 video frame)
Interleave, preload duration : 480 ms







   Похожие торренты   Торрент   Размер 
В этой теме нет новых непрочитанных сообщений. Неизвестные люди (Неизвестные лица) / Persons Unknown [01х04] (2010) TVRip

0 | 2

353.29 МБ

В этой теме нет новых непрочитанных сообщений. Persons Unknown | Неизвестные лица (2010) MP3

0 | 1

125.9 МБ

В этой теме нет новых непрочитанных сообщений. Неизвестные лица / Persons Unknown [S01] (2010) HDTVRip | D

56 | 42

6.35 ГБ

В этой теме нет новых непрочитанных сообщений. Неизвестные / Persons Unknown [s01] (2010) HDTVRip

5 | 2

5.35 ГБ

В этой теме нет новых непрочитанных сообщений. Неизвестный / Unknown (2011) BDRip 1080p от Youtracker | Лицензия

102 | 19

9.41 ГБ

В этой теме нет новых непрочитанных сообщений. У дьявола нет лица / Plasterhead (2006) DVDRip от Youtracker | P

3 | 10

744.73 МБ

В этой теме нет новых непрочитанных сообщений. У дьявола нет лица / Plasterhead (2006) DVDRip от Youtracker | P

1 | 2

1.46 ГБ




Вы не можете начинать темы
Вы не можете отвечать на сообщения
Вы не можете редактировать свои сообщения
Вы не можете удалять свои сообщения
Вы не можете добавлять вложения

Перейти:  
Для Мосгорсуда, Роскомнадзора и рекламодателей: mosgorsud-torrent[собачка]yandex.ru
 Вход
ppkBB3cker v.2 © 2008-2014 @ PPK
[ Time : 0.064s | 15 Queries | GZIP : Off ]

cron