img image001 image001 image001 image001 image001 image001 image001 image001 image001 image001 image001 image001 image001 image001 image001

Planets Sun Sun Sun
Статистика раздачи
Автор: Снежана | Размер: 5.01 ГБ | Добавлен: 26 июл 2013
Раздают: 3    Качают: 5
Скачать торрент
Скачать торрент
Описание торрента

СообщениеДобавлено: 26 июл 2013 

#77

Название: Мистер Селфридж
Оригинальное название: Mr. Selfridge
Год выпуска: 2013
Жанр: драма
Режиссер: Энтони Бирн, Майкл Кейллор, Джон Джонс
В ролях: Джереми Пивен, Фрэнсис О'Коннор, Айслинг Лофтус, Том Гудман-Хилл, Аманда Аббингтон, Кэтрин Келли, Рон Кук, Зои Таппер и др

Описание: В центре внимания амбициозного проекта — американский предприниматель, Г. Г. Селфридж, в 1906 году, во время своего первого визита в Лондон, утвердившийся во мнении, что Англия испытывает дефицит толковых торговых центров, и открывший своё первое подобное заведение в 1909-м. Мы увидем взлёт и падение бизнесмена-революционера, растянувшиеся на три десятилетия, с 1909 по 1939.



Страна: Великобритания
Продолжительность: 10 x ~ 01:00:00
Перевод: Профессиональный (многоголосый, закадровый) - Baibako
Субтитры: вшитые субтитры на песни

Перевод: vipere
Озвучка: Сергей Корчак, Ольга Мотрич, Лира Грим и Виталий Ткаченк
Монтаж: Павел Дежин
Обложка: Татьяна Saavick
Рип: Мосенька

Качество: WEB-DLRip
Формат: AVI
Видео: XviD, 656x368, 23.976 fps, ~1200 kbps, ~0.18 bit/pixel
Аудио rus: MP3, 48 kHz, 2 ch, ~128 kbps
Аудио eng: MP3, 48 kHz, 2 ch, ~128 kbps

Добавлена 08-ая серия.

General
Complete name : I:Мистер Селфридж (Сезон 1) BaibaKoMr.Selfridge.s01e01.WEB-DLRip.Rus.Eng.BaibaKo.avi
Format : AVI
Format/Info : Audio Video Interleave
File size : 601 MiB
Duration : 1h 2mn
Overall bit rate : 1 349 Kbps
Writing application : VirtualDubMod 1.5.10.3 | www.virtualdub-fr.org || (build 2550/release)
Writing library : VirtualDubMod build 2550/release

Video
ID : 0
Format : MPEG-4 Visual
Format profile : Advanced Simple@L5
Format settings, BVOP : 1
Format settings, QPel : No
Format settings, GMC : No warppoints
Format settings, Matrix : Custom
Codec ID : XVID
Codec ID/Hint : XviD
Duration : 1h 2mn
Bit rate : 1 079 Kbps
Width : 656 pixels
Height : 368 pixels
Display aspect ratio : 16:9
Frame rate : 25.000 fps
Color space : YUV
Chroma subsampling : 4:2:0
Bit depth : 8 bits
Scan type : Progressive
Compression mode : Lossy
Bits/(Pixel*Frame) : 0.179
Stream size : 481 MiB (80%)
Writing library : XviD 63

Audio #1
ID : 1
Format : MPEG Audio
Format version : Version 1
Format profile : Layer 3
Mode : Joint stereo
Mode extension : MS Stereo
Codec ID : 55
Codec ID/Hint : MP3
Duration : 1h 2mn
Bit rate mode : Constant
Bit rate : 128 Kbps
Channel(s) : 2 channels
Sampling rate : 48.0 KHz
Compression mode : Lossy
Stream size : 57.0 MiB (9%)
Alignment : Aligned on interleaves
Interleave, duration : 40 ms (1.00 video frame)
Interleave, preload duration : 504 ms
Writing library : LAME3.98r
Encoding settings : -m j -V 4 -q 0 -lowpass 17 -b 128

Audio #2
ID : 2
Format : MPEG Audio
Format version : Version 1
Format profile : Layer 3
Mode : Joint stereo
Mode extension : MS Stereo
Codec ID : 55
Codec ID/Hint : MP3
Duration : 1h 2mn
Bit rate mode : Constant
Bit rate : 128 Kbps
Channel(s) : 2 channels
Sampling rate : 48.0 KHz
Compression mode : Lossy
Stream size : 57.0 MiB (9%)
Alignment : Aligned on interleaves
Interleave, duration : 40 ms (1.00 video frame)
Interleave, preload duration : 504 ms


Релиз от:



   Похожие торренты   Торрент   Размер 
В этой теме нет новых непрочитанных сообщений. Мистер Селфридж / Mr. Selfridge [S01] (2013) WEB-DLRip-AVC | Baibako

0 | 18

6.26 ГБ

В этой теме нет новых непрочитанных сообщений. Мистер Селфридж / Mr. Selfridge [04x01 из 10] (2016) WEB-DLRip | Baibako

83 | 0

605.04 МБ

В этой теме нет новых непрочитанных сообщений. Мистер Селфридж / Mr. Selfridge [S01] (2013) WEB-DL 1080p | Baibako

1 | 364

17.5 ГБ

В этой теме нет новых непрочитанных сообщений. Мистер Селфридж / Mr. Selfridge [S01] (2013) HDRip | Baibako

1 | 3

7.95 ГБ

В этой теме нет новых непрочитанных сообщений. Мистер Селфридж / Mr. Selfridge [S01] (2013) WEB-DL 720p | Baibako

3 | 4

14.36 ГБ

В этой теме нет новых непрочитанных сообщений. Мистер Селфридж / Mr. Selfridge [01х01-10 из 10] (2013) WEB-DLRip | ViruseProject

0 | 1

4.95 ГБ

В этой теме нет новых непрочитанных сообщений. Мистер Селфридж / Mr. Selfridge [01х01-08 из 10] (2013) WEB-DLRip | ViruseProject

0 | 1

3.97 ГБ




Вы не можете начинать темы
Вы не можете отвечать на сообщения
Вы не можете редактировать свои сообщения
Вы не можете удалять свои сообщения
Вы не можете добавлять вложения

Перейти:  
Для Мосгорсуда, Роскомнадзора и рекламодателей: mosgorsud-torrent[собачка]yandex.ru
 Вход
ppkBB3cker v.2 © 2008-2014 @ PPK
[ Time : 0.059s | 17 Queries | GZIP : Off ]
CGP output time : 0.026s | 5 Queries | GZIP : Off

Торрент трекер RUTOR.IN, Не можете зайти на rutor.org? Какой новый адрес рутор? Какое зеркало рутор? Не работает rutor.org и зеркала? Тогда наш торрент специально для вас. Rutor.in неофициальное зеркало rutor. В случае если у Вас заблокирован rutor или вдруг Вы не можете на него зайти, то Вы без труда сможете скачать бесплатно и без рекламы последние новинки кино, игр, сериалов и прочего у нас, на Rutor.in. Не нужно использовать прокси, чтобы зайти на рутор, достаточно воспользоваться нашим ресурсом. Все новые фильмы, игры, сериалы, книги и музыка за 2013 и 2014 годы через торрент бесплатно. Скачивайте фильмы в хорошем качестве, игры для пк, xbox, playstation без регистрации. У нас вы найдете новые Зарубежные сериалы и Русские сериалы 2013, 2014, 2015 годов. Оставайтесь с нами, качайте любимые фильмы, игры, сериалы, книги и музыку.