img image001 image001 image001 image001 image001 image001 image001 image001 image001 image001 image001 image001 image001 image001 image001

Planets Sun Sun Sun
Статистика раздачи
Автор: Снежана | Размер: 2.91 ГБ | Добавлен: 25 июл 2013
Раздают: 51    Качают: 32
Скачать торрент
Скачать торрент
Описание торрента

СообщениеДобавлено: 25 июл 2013 

#77
Год выпуска: 2012
Выпущено: Украина / Film.UA

Жанр: драма, военный
Продолжительность: 00:49:00 + 00:50:26 + 00:50:13 + 00:51:00

Перевод: не требуется
Оригинальная аудиодорожка: русский
Субтитры: нет

Режиссер: Татьяна Ходаковская

В ролях: Богдан Бенюк, Матвей Зубалевич, Александра Тюфтей, Наталья Бузько, Кирилл Полухин, Алексей Шемес, Валентин Касьян, Игорь Гнездилов, Эдуард Безродный, Борис Георгиевский...

Описание: Во время войны на оккупированной территории организован фильтрационный немецкий лагерь «Надежда», где проводят опыты над детьми. Особой ценностью считаются близнецы — самый ценный материал для опытов. И когда из лагеря удается бежать одному из близнецов, немцы поднимают тревогу, пытаясь отыскать сбежавшего мальчишку. Это усложняет жизнь и жителям ближайшего села, и партизанскому отряду, и даже местным полицаям. В центре развития событий жизнь маленького Пети и трогательная история любви молодой пары — полицая Андрея и дочки старосты Нины. Герои раз за разом сталкиваются со смертью близких, противостоянием, недоверием и обманом. Те, кто еще вчера были друзьями, становятся самыми опасными врагами, а те, кому вчера не подали бы руки, откроются с новой стороны.






Качество видео: DVDRip [DVD9 R5]
Формат видео: AVI

Видео: 720x400 (16:9), XviD 1873 Кбит/сек 25,000 fps / Бит/(Пиксели*Кадры): 0.260
Аудио: Dolby Digital Audio Russian 192 kbps 2.0 / 48 kHz

Раздача от:
Общее
Полное имя : Angely.voiny.2012.O.DVDRip_[Youtracker]_by_avproh1.avi
Формат : AVI
Формат/Информация : Audio Video Interleave
Размер файла : 727 Мбайт
Продолжительность : 49 м.
Общий поток : 2075 Кбит/сек
Программа кодирования : VirtualDubMod 1.5.10.3 | www.virtualdub-fr.org || (build 2550/release)
Библиотека кодирования : VirtualDubMod build 2550/release

Видео
Идентификатор : 0
Формат : MPEG-4 Visual
Профиль формата : Advanced Simple@L5
Параметр BVOP формата : 1
Параметр QPel формата : Нет
Параметр GMC формата : Без точки перехода
Параметр матрицы формата : Выборочная
Идентификатор кодека : XVID
Идентификатор кодека/Подсказка : XviD
Продолжительность : 49 м.
Битрейт : 1873 Кбит/сек
Ширина : 720 пикселей
Высота : 400 пикселей
Соотношение сторон : 16:9
Частота кадров : 25,000 кадров/сек
Цветовое пространство : YUV
Субдискретизация насыщенности : 4:2:0
Битовая глубина : 8 бит
Тип развёртки : Прогрессивная
Метод сжатия : С потерями
Бит/(Пиксели*Кадры) : 0.260
Размер потока : 657 Мбайт (90%)
Библиотека кодирования : XviD 65

Аудио
Идентификатор : 1
Формат : AC-3
Формат/Информация : Audio Coding 3
Расширение режима : CM (complete main)
Параметр Endianness формата : Big
Идентификатор кодека : 2000
Продолжительность : 49 м.
Вид битрейта : Постоянный
Битрейт : 192 Кбит/сек
Каналы : 2 канала
Расположение каналов : Front: L R
Частота : 48,0 КГц
Битовая глубина : 16 бит
Метод сжатия : С потерями
Размер потока : 67,3 Мбайт (9%)
Выравнивание : Разделение по промежуткам
Продолжительность промежутка : 40 мс. (1,00 видеокадр)
Время предзагрузки промежутка : 500 мс.






   Похожие торренты   Торрент   Размер 
В этой теме нет новых непрочитанных сообщений. Ангелы войны [01-04 из 04] 2012 DVDRip-AVC от Youtracker | лицензия

9 | 3

2.9 ГБ

В этой теме нет новых непрочитанных сообщений. Ангелы войны [01-04 из 04] 2012 2xDVD5 от Youtracker | custom | лицензия

2 | 1

7.79 ГБ

В этой теме нет новых непрочитанных сообщений. Ангелы войны [01-04 из 04] 2012 DVD9 R5 от Youtracker

0 | 3

7.57 ГБ

В этой теме нет новых непрочитанных сообщений. Ангелы войны [01-04 из 04] (2012) DVDRip | КПК от Generalfilm

2 | 2

691.4 МБ

В этой теме нет новых непрочитанных сообщений. Ангелы войны [01-04 из 04] (2012) DVD5

2 | 4

3.73 ГБ

В этой теме нет новых непрочитанных сообщений. Ангелы войны [01-04 из 04] (2012) WEB-DL 1080p от MediaClub

132 | 69

4.59 ГБ

В этой теме нет новых непрочитанных сообщений. Ангелы войны [01-04 из 04] (2012) WEB-DL 720p от MediaClub

82 | 9

2.57 ГБ




Вы не можете начинать темы
Вы не можете отвечать на сообщения
Вы не можете редактировать свои сообщения
Вы не можете удалять свои сообщения
Вы не можете добавлять вложения

Перейти:  
Для Мосгорсуда, Роскомнадзора и рекламодателей: mosgorsud-torrent[собачка]yandex.ru
 Вход
ppkBB3cker v.2 © 2008-2014 @ PPK
[ Time : 0.060s | 16 Queries | GZIP : Off ]

Торрент трекер RUTOR.IN, Не можете зайти на rutor.org? Какой новый адрес рутор? Какое зеркало рутор? Не работает rutor.org и зеркала? Тогда наш торрент специально для вас. Rutor.in неофициальное зеркало rutor. В случае если у Вас заблокирован rutor или вдруг Вы не можете на него зайти, то Вы без труда сможете скачать бесплатно и без рекламы последние новинки кино, игр, сериалов и прочего у нас, на Rutor.in. Не нужно использовать прокси, чтобы зайти на рутор, достаточно воспользоваться нашим ресурсом. Все новые фильмы, игры, сериалы, книги и музыка за 2013 и 2014 годы через торрент бесплатно. Скачивайте фильмы в хорошем качестве, игры для пк, xbox, playstation без регистрации. У нас вы найдете новые Зарубежные сериалы и Русские сериалы 2013, 2014, 2015 годов. Оставайтесь с нами, качайте любимые фильмы, игры, сериалы, книги и музыку.
cron