img image001 image001 image001 image001 image001 image001 image001 image001 image001 image001 image001 image001 image001 image001 image001

Planets Sun Sun Sun
Статистика раздачи
Автор: Снежана | Размер: 3.43 ГБ | Добавлен: 25 июл 2013
Раздают: 66    Качают: 28
Скачать торрент
Скачать торрент
Описание торрента

СообщениеДобавлено: 25 июл 2013 

#77

Информация о фильме
Название: Тайны Смолвиля
Оригинальное название: Smallville
Год выхода: 2001
Жанр: Фантастика
Режиссер: Джеймс Маршалл, Грег Биман, Майк Рол и др.
В ролях: Том Уэллинг, Майкл Розенбаум, Кристин Кройк, Сэм Джонс III, Эллисон Мэк, Джон Гловер, Аннетт О’Тул, Джон Шнайдер, Эрика Дюранс, Джастин Хартли и др.

О фильме:
В обычный осенний день на тихий сельский городок Смолвилль обрушивается метериоритный дождь. Семья Кентов находит маленького мальчика рядом с небольшим космическим кораблем. Они его усыновляют, не без помощи миллиардера Лайонела Лутора, чей сын, Лекс также пострадал от метеоритов: он потерял свою рыже-красную копну волос. Вскоре ЛуторКорп строит в окрестностях Смолвилля завод, который становится главным градообразующим предприятием. Проходит двенадцать лет. Найдёныш вымахал до здорового деревенского парня, который успевает и помочь отцу по хозяйству и в школе учиться почти на отлично. Зовут Кларком, он общителен, у него много друзей. Однако есть у него маленький секрет. Он необычайно силен, быстр и неуязвим. Сбитый машиной, он не получает ни царапины и легко находится под водой долгое время. По крайней мере достаточно, чтобы спасти жизнь водителю. Им оказался Лекс Лутор. Между ними завязывается дружба. Однако со временем Лекс всё больше начинает интересоваться, каким образом Кларку удалось спасти его. Несмотря на интерес, Лекс старается заботиться о чете Кентов, стараясь выглядеть достойно в глазах отца Кларка.

Вскоре от своих друзей Пита Росса и Хлои Салливан он узнает, что с момента метеоритного дождя в Смолвилле стали случаться странные вещи. Время от времени, зеленые куски метеоритов (криптонит), дают людям, оказавшимся рядом с ними, необычные способности, свойства которых зависят исключительно от обстоятельств. Причём мутантом можно стать абсолютно неожиданно. Многие поддаются своим низменным страстям и начинают использовать свои способности во зло. Именно с ними и пришлось бороться Кларку. Поначалу, чтобы защитить одноклассников, а затем — просто потому, что так надо. Скоро выясняется, что ЛюторКорп проводила некие секретные исследования метеоритов. Лекс также начинает проявлять интерес к исследованию метеоритов, но выясняет, что это очень опасная область, и засекречивает все исследования. Вместе с тем, желая доказать отцу свои таланты, он начинает работу по становлению новой компании, которая уже не будет подконтрольна его отцу и, более того, превзойдет его.



Страна: США
Продолжительность: 21 x ~00:44:00
Перевод: Профессиональный(многоголосый, закадровый) [СТС]

Файл
Формат: MP4
Качество: WEB-DLRip | КПК
Видео: MPEG-4 AVC (x264), 640x360, 400 kbps, 23.976 fps
Аудио: AAC LC, 48.0 KHz, 2 ch, 128 Kbps
Субтитры: Нет

Семпл


Format : MPEG-4
Format profile : Base Media
Codec ID : isom
File size : 166 MiB
Duration : 43mn 43s
Overall bit rate mode : Variable
Overall bit rate : 531 Kbps
Encoded date : UTC 2013-03-28 15:34:18
Tagged date : UTC 2013-03-28 15:34:18
Video #1
ID : 1
Format : AVC
Format/Info : Advanced Video Codec
Format profile : Baseline@L4.1
Format settings, CABAC : No
Format settings, ReFrames : 6 frames
Codec ID : avc1
Codec ID/Info : Advanced Video Coding
Duration : 43mn 43s
Bit rate : 400 Kbps
Maximum bit rate : 2 278 Kbps
Width : 640 pixels
Height : 360 pixels
Display aspect ratio : 16:9
Frame rate mode : Constant
Frame rate : 23.976 fps
Color space : YUV
Chroma subsampling : 4:2:0
Bit depth : 8 bits
Scan type : Progressive
Bits/(Pixel*Frame) : 0.072
Stream size : 125 MiB (75%)
Writing library : x264 core 119 r2106 07efeb4
Encoding settings : cabac=0 / ref=6 / deblock=1:-1:-1 / analyse=0x1:0x111 / me=umh / subme=7 / psy=1 / psy_rd=1.00:0.00 / mixed_ref=0 / me_range=16 / chroma_me=1 / trellis=1 / 8x8dct=0 / cqm=0 / deadzone=21,11 / fast_pskip=0 / chroma_qp_offset=-2 / threads=3 / sliced_threads=0 / nr=0 / decimate=1 / interlaced=0 / bluray_compat=0 / constrained_intra=0 / bframes=0 / weightp=0 / keyint=250 / keyint_min=23 / scenecut=40 / intra_refresh=0 / rc_lookahead=60 / rc=2pass / mbtree=1 / bitrate=400 / ratetol=1.0 / qcomp=0.60 / qpmin=0 / qpmax=69 / qpstep=4 / cplxblur=20.0 / qblur=0.5 / ip_ratio=1.40 / aq=1:1.00
Encoded date : UTC 2013-03-28 15:34:18
Tagged date : UTC 2013-03-28 15:34:45
Audio #2
ID : 2
Format : AAC
Format/Info : Advanced Audio Codec
Format profile : LC
Codec ID : 40
Duration : 43mn 42s
Bit rate mode : Variable
Bit rate : 128 Kbps
Maximum bit rate : 149 Kbps
Channel(s) : 2 channels
Channel positions : Front: L R
Sampling rate : 48.0 KHz
Compression mode : Lossy
Stream size : 40.0 MiB (24%)
Encoded date : UTC 2013-03-28 15:34:43
Tagged date : UTC 2013-03-28 15:34:45

Релиз от:



   Похожие торренты   Торрент   Размер 
В этой теме нет новых непрочитанных сообщений. Тайны Смолвиля / Smallville [S01] (2001) WEB-DLRip-AVC

2 | 7

16.39 ГБ

В этой теме нет новых непрочитанных сообщений. Тайны Смолвиля / Smallville [S01-10] (2001-2011) WEB-DLRip, DVDRip, HDRip | P, L

2 | 29

78.19 ГБ

В этой теме нет новых непрочитанных сообщений. Тайны Смолвиля / Smallville [S01-10] (2001-2011) WEB-DLRip, DVDRip, HDRip | СТС

10 | 30

79.92 ГБ

В этой теме нет новых непрочитанных сообщений. Тайны Смолвиля / Smallville [S01-10] (2001-2011) WEB-DLRip, DVDRip, HDRip | СТС

144 | 577

79.92 ГБ

В этой теме нет новых непрочитанных сообщений. Тайны Смолвиля / Smallville [S04] (2003) WEB-DLRip | КПК от Generalfilm

68 | 30

3.52 ГБ

В этой теме нет новых непрочитанных сообщений. Тайны Смолвиля / Smallville [S03] (2003) WEB-DLRip | КПК от Generalfilm

28 | 16

3.51 ГБ

В этой теме нет новых непрочитанных сообщений. Тайны Смолвиля / Smallville [S02] (2002) WEB-DLRip | КПК от Generalfilm

46 | 36

3.68 ГБ




Вы не можете начинать темы
Вы не можете отвечать на сообщения
Вы не можете редактировать свои сообщения
Вы не можете удалять свои сообщения
Вы не можете добавлять вложения

Перейти:  
Для Мосгорсуда, Роскомнадзора и рекламодателей: mosgorsud-torrent[собачка]yandex.ru
 Вход
ppkBB3cker v.2 © 2008-2014 @ PPK
[ Time : 0.037s | 14 Queries | GZIP : Off ]

Торрент трекер RUTOR.IN, Не можете зайти на rutor.org? Какой новый адрес рутор? Какое зеркало рутор? Не работает rutor.org и зеркала? Тогда наш торрент специально для вас. Rutor.in неофициальное зеркало rutor. В случае если у Вас заблокирован rutor или вдруг Вы не можете на него зайти, то Вы без труда сможете скачать бесплатно и без рекламы последние новинки кино, игр, сериалов и прочего у нас, на Rutor.in. Не нужно использовать прокси, чтобы зайти на рутор, достаточно воспользоваться нашим ресурсом. Все новые фильмы, игры, сериалы, книги и музыка за 2013 и 2014 годы через торрент бесплатно. Скачивайте фильмы в хорошем качестве, игры для пк, xbox, playstation без регистрации. У нас вы найдете новые Зарубежные сериалы и Русские сериалы 2013, 2014, 2015 годов. Оставайтесь с нами, качайте любимые фильмы, игры, сериалы, книги и музыку.