img image001 image001 image001 image001 image001 image001 image001 image001 image001 image001 image001 image001 image001 image001 image001

Planets Sun Sun Sun
Статистика раздачи
Автор: Снежана | Размер: 35.1 ГБ | Добавлен: 25 июл 2013
Раздают: 0    Качают: 1
Скачать торрент
Скачать торрент
Описание торрента

СообщениеДобавлено: 25 июл 2013 

Новенькая
New Girl


#77
Год выпуска: 2011-2012
Страна: США
Жанр: ситком
Продолжительность: ~22 минут серия
Перевод : Профессиональный двухголосый закадровый, Ozz
Оригинальная дорожка: Есть
Аудио: Русский 2.0, Английский 2.0
Cубтитры: Русские, Английские
Режиссёр: Джейк Кэздан
Cценарий: Элизабет Меривезер, Luvh Rakhe, Беркли Джонсон
Продюсер: Megan Mascena Gaspar, Дж.Дж. Филбин, Джо Порт
В ролях: Зои Дешанель, Дэймон Уайанс мл., Джэйк М. Джонсон, Джиллиан Вигмэн, Ханна Симона, Макс Гринфилд, Мэри Элизабет Эллис, Стив Баннос, Хейли Норман, Джек Янг
Описание: Комедия о сексуальных отношениях мужчин и женщин. В центре сюжета — Джессика, оптимистичная, но несчастная в любви учительница начальной школы, которая после последнего разрыва въезжает в квартиру, где уже живут три парня.[/font]


Контейнер: M4V
Видео кодек: AVC
Аудио кодек: H 264
Видео: 1280x720 at 23.976 fps, MPEG-4 AVC, ~4000 kbps avg
Аудио №1: Stereo RUS (183 kbps) / Профессиональный двухголосый закадровый, Ozz
Аудио №2: AC-3 RUS (384 kbps) / Профессиональный двухголосый закадровый, Ozz
Аудио №3: Stereo ENG (180 kbps) / Оригинал
Аудио №4: AC-3 ENG (384 kbps) / Оригинал
Субтитры № 1: Русские
Субтитры № 2: Английские

"Список серий"
01 Pilot
02 Kryptonite
03 Wedding
04 Naked
09 The 23rd
08 Bad In Bed
07 Bells
06 Thanksgiving
07 Bells
08 Bad In Bed
09 The 23rd
10 The Story of the 50
11 Jess and Julia
12 The Landlord
13 Valentine's Day
14 Bully
15 Injured
16 Control
17 Fancyman (Part 1)
18 Fancyman (Part 2)
19 Secrets
20 Normal
21 Kids
22 Tomatoes
23 Backslide
24 See Ya
01 Re-Launch
02 Katie
03 Fluffer
04 Neighbors
05 Models
06 Halloween
07 Menzies
08 Parents
09 Eggs
10 Bathtub
11 Santa
12 Cabin
13 A Father's Love
14 Pepperwood
15 Cooler
16 Table 34
17 Parking Spot
18 TinFinity
19 Quick Hardening Caulk



"MediaInfo"
Формат : MPEG-4
Идентификатор кодека : M4V
Размер файла : 748 Мбайт
Продолжительность : 24 м.
Режим общего битрейта : Переменный
Общий поток : 4328 Кбит/сек
Название фильма : Pilot
Альбом : New Girl, Season 1
Альбом/Исполнитель : New Girl
Часть/Положение : 1
Часть/Всего : 1
Трек/Положение : 1
Трек/Всего : 24
Исполнитель : New Girl
Жанр : Comedy
Дата записи : UTC 2011-09-20 07:00:00
Дата кодирования : UTC 2011-10-10 13:18:36
Дата пометки : UTC 2011-10-11 13:22:14
Программа кодирования : MkvToMp4 [www.mkvtomp4.ru] version 0.214a
Обложка : Yes
tvsh : New Girl
tvnn : FOX
tven : Pilot
tvsn : 1
tves : 1
desc : Zooey Deschanel stars as Jess Day, a young woman who, after discovering her long-term boyfriend is cheating on her, moves into a loft apartment with three male roommates – prickly bartender Nick, womanizer Schmidt and intense personal trainer Coach.
ldes : Zooey Deschanel stars as Jess Day, a young woman who, after discovering her long-term boyfriend is cheating on her, moves into a loft apartment with three male roommates – prickly bartender Nick, womanizer Schmidt and intense personal trainer Coach. In the opener, the guys try to help Jess get back on her feet and into the dating world.
hdvd : 1
stik : 10
iTunEXTC : us-tv|TV-PG|400|

Видео
Идентификатор : 1
Формат : AVC
Формат/Информация : Advanced Video Codec
Профиль формата : High@L3.1
Параметр CABAC формата : Нет
Параметр ReFrames формата : 2 кадра
Идентификатор кодека : avc1
Идентификатор кодека/Информация : Advanced Video Coding
Продолжительность : 24 м.
Битрейт : 4005 Кбит/сек
Максимальный битрейт : 9178 Кбит/сек
Ширина : 1280 пикселей
Высота : 720 пикселей
Соотношение сторон : 16:9
Режим частоты кадров : Постоянный
Частота кадров : 23,976 кадра/сек
Цветовое пространство : YUV
Субдискретизация насыщенности : 4:2:0
Битовая глубина : 8 бит
Тип развёртки : Прогрессивная
Бит/(Пиксели*Кадры) : 0.181
Размер потока : 692 Мбайт (93%)
Заголовок : New Girl - Season 1, Episode 1
Язык : English
Дата кодирования : UTC 2011-10-10 13:18:36
Дата пометки : UTC 2011-10-10 13:21:11
Основные цвета : BT.709-5, BT.1361, IEC 61966-2-4, SMPTE RP177
Характеристики трансфера : BT.709-5, BT.1361
Коэффициенты матрицы : BT.709-5, BT.1361, IEC 61966-2-4 709, SMPTE RP177

Аудио #1
Идентификатор : 2
Формат : AAC
Формат/Информация : Advanced Audio Codec
Профиль формата : LC
Идентификатор кодека : 40
Продолжительность : 24 м.
Вид битрейта : Переменный
Битрейт : 155 Кбит/сек
Максимальный битрейт : 210 Кбит/сек
Каналы : 2 канала
Расположение каналов : Front: L R
Частота : 48,0 КГц
Метод сжатия : С потерями
Размер потока : 26,7 Мбайт (4%)
Заголовок : Ozz.tv
Язык : Russian
Дата кодирования : UTC 2011-10-10 13:20:58
Дата пометки : UTC 2011-10-10 13:21:11

Аудио #2
Идентификатор : 3
Формат : AAC
Формат/Информация : Advanced Audio Codec
Профиль формата : LC
Идентификатор кодека : 40
Продолжительность : 24 м.
Вид битрейта : Переменный
Битрейт : 154 Кбит/сек
Максимальный битрейт : 567 Кбит/сек
Каналы : 2 канала
Расположение каналов : Front: L R
Частота : 48,0 КГц
Метод сжатия : С потерями
Размер потока : 26,5 Мбайт (4%)
Заголовок : AAC 2.0 @ 160 kbps
Язык : English
Дата кодирования : UTC 2011-10-10 13:20:59
Дата пометки : UTC 2011-10-10 13:21:11

Текст #1
Идентификатор : 4
Формат : Timed text
Режим смешивания : sbtl
Идентификатор кодека : tx3g
Продолжительность : 23 м.
Вид битрейта : Переменный
Битрейт : 170 бит/сек
Размер потока : 29,9 Кбайт (0%)
Заголовок : Trotteville
Язык : Russian
Дата кодирования : UTC 2011-10-10 13:21:11
Дата пометки : UTC 2011-10-10 13:21:11

Текст #2
Идентификатор : 5
Формат : Timed text
Режим смешивания : sbtl
Идентификатор кодека : tx3g
Продолжительность : 24 м.
Вид битрейта : Переменный
Битрейт : 112 бит/сек
Размер потока : 19,7 Кбайт (0%)
Язык : English
Дата кодирования : UTC 2011-10-10 13:21:11
Дата пометки : UTC 2011-10-10 13:21:11
Общее
Полное имя : H:MediaTV ShowsNew GirlSeason 22-01 Re-Launch (HD).m4v
Формат : MPEG-4
Идентификатор кодека : M4V
Размер файла : 824 Мбайт
Продолжительность : 22 м.
Режим общего битрейта : Переменный
Общий поток : 5208 Кбит/сек
Название фильма : Re-Launch
Альбом : New Girl, Season 2
Альбом/Исполнитель : New Girl
Часть/Положение : 1
Часть/Всего : 1
Трек/Положение : 1
Трек/Всего : 24
Исполнитель : New Girl
Жанр : Comedy
Дата записи : 2012-09-25T07:00:00Z
Дата кодирования : UTC 2012-10-05 10:34:22
Дата пометки : UTC 2012-10-06 13:05:55
Программа кодирования : MkvToMp4 [www.mkvtomp4.ru] version 0.221
Правообладатель : © 2012-2013 Twentieth Century Fox Film Corporation. All rights reserved.
Обложка : Yes
tvsh : New Girl
tvnn : FOX
tven : 201
tvsn : 2
tves : 1
soar : New Girl
soaa : New Girl
sosn : New Girl
desc : Schmidt throws himself a “rebranding” party at which Jess, recently fired from her teaching job, volunteers to be a “shot girl” -- alongside a very jaded cocktail waitress (guest star Parker Posey). Meanwhile, Winston shows a different side of his pe
ldes : Schmidt throws himself a “rebranding” party at which Jess, recently fired from her teaching job, volunteers to be a “shot girl” -- alongside a very jaded cocktail waitress (guest star Parker Posey). Meanwhile, Winston shows a different side of his personality after drinking some of Nick’s fruity concoctions, and Cece introduces the gang to her new boyfriend (guest star Nelson Franklin).
hdvd : 1
stik : 10
akID : -1
sfID : 0
cnID : 565038199
xid : ATV:vendor_id:2012-581129-201
iTunEXTC : us-tv|TV-14|500|

Видео
Идентификатор : 1
Формат : AVC
Формат/Информация : Advanced Video Codec
Профиль формата : High@L3.1
Параметр CABAC формата : Нет
Параметр ReFrames формата : 2 кадра
Идентификатор кодека : avc1
Идентификатор кодека/Информация : Advanced Video Coding
Продолжительность : 22 м.
Битрейт : 4178 Кбит/сек
Максимальный битрейт : 9388 Кбит/сек
Ширина : 1280 пикселей
Высота : 718 пикселей
Соотношение сторон : 16:9
Режим частоты кадров : Постоянный
Частота кадров : 23,976 кадра/сек
Цветовое пространство : YUV
Субдискретизация насыщенности : 4:2:0
Битовая глубина : 8 бит
Тип развёртки : Прогрессивная
Бит/(Пиксели*Кадры) : 0.190
Размер потока : 661 Мбайт (80%)
Заголовок : New Girl - Season 2, Episode 1
Язык : English
Дата кодирования : UTC 2012-10-05 10:34:22
Дата пометки : UTC 2012-10-05 10:35:25
Основные цвета : BT.709-5, BT.1361, IEC 61966-2-4, SMPTE RP177
Характеристики трансфера : BT.709-5, BT.1361
Коэффициенты матрицы : BT.709-5, BT.1361, IEC 61966-2-4 709, SMPTE RP177

Аудио #1
Идентификатор : 2
Формат : AAC
Формат/Информация : Advanced Audio Codec
Профиль формата : LC
Идентификатор кодека : 40
Продолжительность : 22 м.
Вид битрейта : Переменный
Битрейт : 125 Кбит/сек
Максимальный битрейт : 182 Кбит/сек
Каналы : 2 канала
Расположение каналов : Front: L R
Частота : 48,0 КГц
Метод сжатия : С потерями
Размер потока : 19,8 Мбайт (2%)
Заголовок : Ozz @ DD 5.1
Язык : Russian
Дата кодирования : UTC 2012-10-05 10:35:14
Дата пометки : UTC 2012-10-05 10:35:25

Аудио #2
Идентификатор : 3
Формат : AAC
Формат/Информация : Advanced Audio Codec
Профиль формата : LC
Идентификатор кодека : 40
Продолжительность : 22 м.
Вид битрейта : Переменный
Битрейт : 120 Кбит/сек
Максимальный битрейт : 181 Кбит/сек
Каналы : 2 канала
Расположение каналов : Front: L R
Частота : 48,0 КГц
Метод сжатия : С потерями
Размер потока : 18,9 Мбайт (2%)
Заголовок : Оригинал @ DD 5.1
Язык : English
Дата кодирования : UTC 2012-10-05 10:35:15
Дата пометки : UTC 2012-10-05 10:35:25

Аудио #3
Идентификатор : 4
Формат : AC-3
Формат/Информация : Audio Coding 3
Расширение режима : CM (complete main)
Идентификатор кодека : ac-3
Продолжительность : 22 м.
Вид битрейта : Постоянный
Битрейт : 384 Кбит/сек
Каналы : 6 каналов
Расположение каналов : Front: L C R, Side: L R, LFE
Частота : 48,0 КГц
Битовая глубина : 16 бит
Метод сжатия : С потерями
Размер потока : 60,7 Мбайт (7%)
Заголовок : Ozz @ DD 5.1
Язык : Russian
Дата кодирования : UTC 2012-10-05 10:35:16
Дата пометки : UTC 2012-10-05 10:35:25

Аудио #4
Идентификатор : 5
Формат : AC-3
Формат/Информация : Audio Coding 3
Расширение режима : CM (complete main)
Идентификатор кодека : ac-3
Продолжительность : 22 м.
Вид битрейта : Постоянный
Битрейт : 384 Кбит/сек
Каналы : 6 каналов
Расположение каналов : Front: L C R, Side: L R, LFE
Частота : 48,0 КГц
Битовая глубина : 16 бит
Метод сжатия : С потерями
Размер потока : 60,7 Мбайт (7%)
Заголовок : Оригинал @ DD 5.1
Язык : English
Дата кодирования : UTC 2012-10-05 10:35:20
Дата пометки : UTC 2012-10-05 10:35:25

Текст #1
Идентификатор : 6
Формат : Timed text
Режим смешивания : sbtl
Идентификатор кодека : tx3g
Продолжительность : 21 м.
Вид битрейта : Переменный
Битрейт : 163 бит/сек
Размер потока : 25,8 Кбайт (0%)
Заголовок : Trotteville
Язык : Russian
Дата кодирования : UTC 2012-10-05 10:35:25
Дата пометки : UTC 2012-10-05 10:35:25

Текст #2
Идентификатор : 7
Формат : Timed text
Режим смешивания : sbtl
Идентификатор кодека : tx3g
Продолжительность : 21 м.
Вид битрейта : Переменный
Битрейт : 114 бит/сек
Размер потока : 18,3 Кбайт (0%)
Язык : English
Дата кодирования : UTC 2012-10-05 10:35:25
Дата пометки : UTC 2012-10-05 10:35:25


"Meta"
Media Type: TV Show HD 720p
XID: ATV:vendor_id:2011-581129-101
Content ID: 461558564
Copyright: © 2011 Twentieth Century Fox Film Corporation. All rights reserved.
Rating: TV-14
Long Deion: Zooey Deschanel stars as Jess Day, a young woman who, after discovering her long-term boyfriend is cheating on her, moves into a loft apartment with three male roommates – prickly bartender Nick, womanizer Schmidt and intense personal trainer Coach. In the opener, the guys try to help Jess get back on her feet and into the dating world.
Deion: Zooey Deschanel stars as Jess Day, a young woman who, after discovering her long-term boyfriend is cheating on her, moves into a loft apartment with three male roommates – prickly bartender Nick, womanizer Schmidt and intense personal trainer Coach.
TV Season: 1
TV Episode ID: 101
TV Network: FOX
TV Episode #: 1
TV Show: New Girl
Disk #: 1/1
Track #: 1/24
Release Date: 2011-09-20T07:00:00Z
Genre: Comedy
Album: New Girl, Season 1
Album Artist: New Girl
Artist: New Girl
Name: Pilot
Comments:
Sort Artist: New Girl
Sort Album Artist: New Girl
Sort Album: New Girl, Season 1
Sort TV Show: New Girl
Purchase Date:
iTunes Account:
iTunes Account Type: 255
iTunes Country: 0
Media Type: TV Show HD 720p
XID: ATV:vendor_id:2012-581129-201
Content ID: 565038199
Copyright: © 2012-2013 Twentieth Century Fox Film Corporation. All rights reserved.
Rating: TV-14
Long Deion: Schmidt throws himself a “rebranding” party at which Jess, recently fired from her teaching job, volunteers to be a “shot girl” -- alongside a very jaded cocktail waitress (guest star Parker Posey). Meanwhile, Winston shows a different side of his personality after drinking some of Nick’s fruity concoctions, and Cece introduces the gang to her new boyfriend (guest star Nelson Franklin).
Deion: Schmidt throws himself a “rebranding” party at which Jess, recently fired from her teaching job, volunteers to be a “shot girl” -- alongside a very jaded cocktail waitress (guest star Parker Posey). Meanwhile, Winston shows a different side of his pe
TV Season: 2
TV Episode ID: 201
TV Network: FOX
TV Episode #: 1
TV Show: New Girl
Disk #: 1/1
Track #: 1/24
Release Date: 2012-09-25T07:00:00Z
Genre: Comedy
Album: New Girl, Season 2
Album Artist: New Girl
Artist: New Girl
Name: Re-Launch
Comments:
Sort Artist: New Girl
Sort Album Artist: New Girl
Sort TV Show: New Girl
Purchase Date:
iTunes Account:
iTunes Account Type: 255
iTunes Country: 0


"Скриншоты"




Релиз подготовлен для просмотра на Apple TV, iPad.
Для просмотра данного релиза на компьютере с ОС Windows рекомендуется использовать VLC media player.



   Похожие торренты   Торрент   Размер 
В этой теме нет новых непрочитанных сообщений. Новенькая / New Girl [S01] (2011-2012) WEB-DL 720p | Ozz

11 | 1

17.75 ГБ

В этой теме нет новых непрочитанных сообщений. Новенькая / New Girl [01x01-23] (2011-2012) WEB-DL iTunes 720p | Ozz

2 | 5

18.49 ГБ

В этой теме нет новых непрочитанных сообщений. Новенькая / New Girl [01х01-24 из 24] (2011-2012) WEB-DLRip | Ozz

33 | 12

5.88 ГБ

В этой теме нет новых непрочитанных сообщений. Новенькая / New Girl [S01-03] (2011-2014) WEB-DLRip | Ozz

48 | 103

16.42 ГБ

В этой теме нет новых непрочитанных сообщений. Новенькая / New Girl [02x01-18 из 24] (2012) WEB-DLRip | Ozz

8 | 2

3.71 ГБ

В этой теме нет новых непрочитанных сообщений. Новенькая / New Girl [01-03x01-60 из 68] (2011-2014) WEB-DLRip | Ozz

2 | 7

13.74 ГБ

В этой теме нет новых непрочитанных сообщений. Новенькая / New Girl [01x01-04] (2011) WEB-DLRip | Субтитры

0 | 7

1.17 ГБ




Вы не можете начинать темы
Вы не можете отвечать на сообщения
Вы не можете редактировать свои сообщения
Вы не можете удалять свои сообщения
Вы не можете добавлять вложения

Перейти:  
Для Мосгорсуда, Роскомнадзора и рекламодателей: mosgorsud-torrent[собачка]yandex.ru
 Вход
ppkBB3cker v.2 © 2008-2014 @ PPK
[ Time : 0.056s | 16 Queries | GZIP : Off ]

cron