img image001 image001 image001 image001 image001 image001 image001 image001 image001 image001 image001 image001 image001 image001 image001

Planets Sun Sun Sun
Статистика раздачи
Автор: Снежана | Размер: 14.91 ГБ | Добавлен: 25 июл 2013
Раздают: 1    Качают: 2
Скачать торрент
Скачать торрент
Описание торрента

СообщениеДобавлено: 25 июл 2013 

#77

Год выпуска: 2012
Страна: США
Жанр: Драма, Детектив
Продолжительность: 10 х ~ 00:42:00
Перевод: Любительский (многоголосый закадровый) - (DreamRecords)
Русские субтитры: нет
Режиссёр: Фред Гербер, Джон Скотт, Дэвид Джексон
В ролях: Александра Чандо, Энди Бакли, Элли Гонино, Элис Гречин, Блэр Редфорд, Хелен Слейтер, Адриан Пасдар, Кристиан Александр, Тайлер Кристофер, Харизма Карпентер и др.

Описание: Эмма — добросердечный и воспитанный ребенок, которому не сидится на месте. Она узнала, что у неё есть сестра-близнец, Саттон, которая, в отличие от Эммы, была воспитана состоятельными родителями и, по-видимому, живет идеальной жизнью. После первой же встречи Саттон уговорила Эмму притвориться ею на несколько дней, пока она изучит наводку об их биологической матери. Изначально Эмма была рада сделать одолжение своей сестре, однако затем выяснилось, что Саттон пропала и может быть в беде. Сейчас Эмма должна решить, стоит ли рассказывать правду семье Саттон и рисковать своей безопасностью в надежде выяснить истинное местонахождение своей сестры и правду о том, почему они были разделены.



Озвученно: DreamRecords
Перевод: Дарья Дьячук
Редакция: Ольга Галайда
Текст читали: Юлия Реутова, Мила Мирелли, Михаил Алексеев, Денис Золотов
Сведение звука: Алексей Фокин
Постер: mystery
WEB-DL предоставил: KINO1982



Качество: WEB-DL 720p
Формат: МКV
Видео: H.264, 1280x720, 23.976 fps, 3927 Kbps, 0.180 bit/pixel
Аудио Rus: AC-3, 48.0 KHz, 6 ch, 448 Kbps
Аудио Eng: AC-3, 48.0 KHz, 6 ch, 384 Kbps

Format : Matroska
Format version : Version 2
File size : 1.51 GiB
Duration : 44mn 9s
Overall bit rate : 4 902 Kbps
Encoded date : UTC 2013-02-05 22:48:20
Writing application : mkvmerge v5.8.0 ('No Sleep / Pillow') built on Sep 2 2012 15:37:04
Writing library : libebml v1.2.3 + libmatroska v1.3.0

Video
ID : 1
Format : AVC
Format/Info : Advanced Video Codec
Format profile : High@L3.1
Format settings, CABAC : No
Format settings, ReFrames : 2 frames
Codec ID : V_MPEG4/ISO/AVC
Duration : 44mn 9s
Bit rate : 3 972 Kbps
Width : 1 280 pixels
Height : 720 pixels
Display aspect ratio : 16:9
Frame rate mode : Constant
Frame rate : 23.976 fps
Color space : YUV
Chroma subsampling : 4:2:0
Bit depth : 8 bits
Scan type : Progressive
Bits/(Pixel*Frame) : 0.180
Stream size : 1.23 GiB (81%)
Language : English
Default : Yes
Forced : No
Color primaries : BT.709
Transfer characteristics : BT.709
Matrix coefficients : BT.709

Audio #1
ID : 2
Format : AC-3
Format/Info : Audio Coding 3
Mode extension : CM (complete main)
Format settings, Endianness : Big
Codec ID : A_AC3
Duration : 44mn 9s
Bit rate mode : Constant
Bit rate : 448 Kbps
Channel(s) : 6 channels
Channel positions : Front: L C R, Side: L R, LFE
Sampling rate : 48.0 KHz
Bit depth : 16 bits
Compression mode : Lossy
Stream size : 142 MiB (9%)
Title : DreamRecords
Language : Russian
Default : Yes
Forced : No

Audio #2
ID : 3
Format : AC-3
Format/Info : Audio Coding 3
Mode extension : CM (complete main)
Format settings, Endianness : Big
Codec ID : A_AC3
Duration : 44mn 9s
Bit rate mode : Constant
Bit rate : 384 Kbps
Channel(s) : 6 channels
Channel positions : Front: L C R, Side: L R, LFE
Sampling rate : 48.0 KHz
Bit depth : 16 bits
Compression mode : Lossy
Stream size : 121 MiB (8%)
Title : Original
Language : English
Default : No
Forced : No


Релиз от:



   Похожие торренты   Торрент   Размер 
В этой теме нет новых непрочитанных сообщений. Игра в ложь / The Lying Game [02х01-10 из 20] (2012) WEB-DLRip | DreamRecords

1 | 2

4.62 ГБ

В этой теме нет новых непрочитанных сообщений. Игра в ложь / The Lying Game [S01] (2011) WEB-DLRip | L2

1 | 2

9.79 ГБ

В этой теме нет новых непрочитанных сообщений. Игра в ложь / The Lying Game [S01-02] (2011-2013) WEB-DLRip

4 | 5

14.41 ГБ

В этой теме нет новых непрочитанных сообщений. Игра престолов / Game of Thrones [02х01-05 из 10] (2012) BDRip 1080p

0 | 4

22.84 ГБ

В этой теме нет новых непрочитанных сообщений. Обед в пятницу вечером / Пятничный ужин / Friday Night Dinner [02х01-06 из 07] (2012) HDTVRip 720p | DreamRecords

0 | 1

3.39 ГБ

В этой теме нет новых непрочитанных сообщений. Игра престолов / Game of Thrones [S02] (2012) HDTVRip 720p | Sub

12 | 8

13.39 ГБ

В этой теме нет новых непрочитанных сообщений. Короли побега / Breakout Kings [02х01-05 из 13] (2012) HDTVRip | DreamRecords & ViruseProject

1 | 1

1.91 ГБ




Вы не можете начинать темы
Вы не можете отвечать на сообщения
Вы не можете редактировать свои сообщения
Вы не можете удалять свои сообщения
Вы не можете добавлять вложения

Перейти:  
Для Мосгорсуда, Роскомнадзора и рекламодателей: mosgorsud-torrent[собачка]yandex.ru
 Вход
ppkBB3cker v.2 © 2008-2014 @ PPK
[ Time : 0.037s | 14 Queries | GZIP : Off ]

Торрент трекер RUTOR.IN, Не можете зайти на rutor.org? Какой новый адрес рутор? Какое зеркало рутор? Не работает rutor.org и зеркала? Тогда наш торрент специально для вас. Rutor.in неофициальное зеркало rutor. В случае если у Вас заблокирован rutor или вдруг Вы не можете на него зайти, то Вы без труда сможете скачать бесплатно и без рекламы последние новинки кино, игр, сериалов и прочего у нас, на Rutor.in. Не нужно использовать прокси, чтобы зайти на рутор, достаточно воспользоваться нашим ресурсом. Все новые фильмы, игры, сериалы, книги и музыка за 2013 и 2014 годы через торрент бесплатно. Скачивайте фильмы в хорошем качестве, игры для пк, xbox, playstation без регистрации. У нас вы найдете новые Зарубежные сериалы и Русские сериалы 2013, 2014, 2015 годов. Оставайтесь с нами, качайте любимые фильмы, игры, сериалы, книги и музыку.