img image001 image001 image001 image001 image001 image001 image001 image001 image001 image001 image001 image001 image001 image001 image001

Planets Sun Sun Sun
Статистика раздачи
Автор: Снежана | Размер: 4.62 ГБ | Добавлен: 25 июл 2013
Раздают: 1    Качают: 2
Скачать торрент
Скачать торрент
Описание торрента

СообщениеДобавлено: 25 июл 2013 

#77

Год выпуска: 2012
Страна: США
Жанр: Драма, Детектив
Продолжительность: 10 х ~ 00:42:00
Перевод: Любительский (многоголосый закадровый) - (DreamRecords)
Русские субтитры: нет
Режиссёр: Фред Гербер, Джон Скотт, Дэвид Джексон
В ролях: Александра Чандо, Энди Бакли, Элли Гонино, Элис Гречин, Блэр Редфорд, Хелен Слейтер, Адриан Пасдар, Кристиан Александр, Тайлер Кристофер, Харизма Карпентер и др.

Описание: Эмма — добросердечный и воспитанный ребенок, которому не сидится на месте. Она узнала, что у неё есть сестра-близнец, Саттон, которая, в отличие от Эммы, была воспитана состоятельными родителями и, по-видимому, живет идеальной жизнью. После первой же встречи Саттон уговорила Эмму притвориться ею на несколько дней, пока она изучит наводку об их биологической матери. Изначально Эмма была рада сделать одолжение своей сестре, однако затем выяснилось, что Саттон пропала и может быть в беде. Сейчас Эмма должна решить, стоит ли рассказывать правду семье Саттон и рисковать своей безопасностью в надежде выяснить истинное местонахождение своей сестры и правду о том, почему они были разделены.



Озвученно: DreamRecords
Перевод: Дарья Дьячук
Редакция: Ольга Галайда
Текст читали: Юлия Реутова, Мила Мирелли, Михаил Алексеев, Денис Золотов
Сведение звука: Алексей Фокин
Постер: mystery
WEB-DL предоставил: KINO1982



Качество: WEB-DLRip
Формат: AVI
Видео: XviD, 720x400, 23.976 fps, 1 294 Kbps, 0.187 bit/pixel
Аудио: MP3, 48 kHz, 2 ch, 192 kbps

Код:
Format : AVI
Format/Info : Audio Video Interleave
File size : 458 MiB
Duration : 42mn 51s
Overall bit rate : 1 495 Kbps
Writing application : VirtualDubModRus 1.5.10.2 (build 2542/release)
Writing library : VirtualDubMod build 2542/release
Video
ID : 0
Format : MPEG-4 Visual
Format profile : Advanced Simple@L5
Format settings, BVOP : 1
Format settings, QPel : No
Format settings, GMC : No warppoints
Format settings, Matrix : Default (MPEG)
Codec ID : XVID
Codec ID/Hint : XviD
Duration : 42mn 51s
Bit rate : 1 294 Kbps
Width : 720 pixels
Height : 400 pixels
Display aspect ratio : 16:9
Frame rate : 23.976 fps
Color space : YUV
Chroma subsampling : 4:2:0
Bit depth : 8 bits
Scan type : Progressive
Compression mode : Lossy
Bits/(Pixel*Frame) : 0.187
Stream size : 397 MiB (87%)
Writing library : XviD 64
Audio
ID : 1
Format : MPEG Audio
Format version : Version 1
Format profile : Layer 3
Mode : Joint stereo
Codec ID : 55
Codec ID/Hint : MP3
Duration : 42mn 51s
Bit rate mode : Constant
Bit rate : 192 Kbps
Channel(s) : 2 channels
Sampling rate : 48.0 KHz
Compression mode : Lossy
Stream size : 58.9 MiB (13%)
Alignment : Aligned on interleaves
Interleave, duration : 42 ms (1.00 video frame)
Interleave, preload duration : 504 ms


Релиз от:



   Похожие торренты   Торрент   Размер 
В этой теме нет новых непрочитанных сообщений. Игра в ложь / The Lying Game [02х01-10 из 20] (2012) WEB-DL 720p | DreamRecords

1 | 2

14.91 ГБ

В этой теме нет новых непрочитанных сообщений. Игра в ложь / The Lying Game [S01] (2011) WEB-DLRip | L2

1 | 2

9.79 ГБ

В этой теме нет новых непрочитанных сообщений. Игра в ложь / The Lying Game [S01-02] (2011-2013) WEB-DLRip

4 | 5

14.41 ГБ

В этой теме нет новых непрочитанных сообщений. Игра престолов / Game of Thrones [02х01-05 из 10] (2012) BDRip 1080p

0 | 4

22.84 ГБ

В этой теме нет новых непрочитанных сообщений. Игра престолов / Game of Thrones [S02] (2012) HDTVRip, WEB-DLRip | Wolrone | L1

84 | 4

4.89 ГБ

В этой теме нет новых непрочитанных сообщений. Короли побега / Breakout Kings [02х01-05 из 13] (2012) HDTVRip | DreamRecords & ViruseProject

1 | 1

1.91 ГБ

В этой теме нет новых непрочитанных сообщений. Обед в пятницу вечером / Пятничный ужин / Friday Night Dinner [02х01-06 из 07] (2012) HDTVRip | DreamRecords

41 | 5

1.44 ГБ




Вы не можете начинать темы
Вы не можете отвечать на сообщения
Вы не можете редактировать свои сообщения
Вы не можете удалять свои сообщения
Вы не можете добавлять вложения

Перейти:  
Для Мосгорсуда, Роскомнадзора и рекламодателей: mosgorsud-torrent[собачка]yandex.ru
 Вход
ppkBB3cker v.2 © 2008-2014 @ PPK
[ Time : 0.060s | 17 Queries | GZIP : Off ]

Торрент трекер RUTOR.IN, Не можете зайти на rutor.org? Какой новый адрес рутор? Какое зеркало рутор? Не работает rutor.org и зеркала? Тогда наш торрент специально для вас. Rutor.in неофициальное зеркало rutor. В случае если у Вас заблокирован rutor или вдруг Вы не можете на него зайти, то Вы без труда сможете скачать бесплатно и без рекламы последние новинки кино, игр, сериалов и прочего у нас, на Rutor.in. Не нужно использовать прокси, чтобы зайти на рутор, достаточно воспользоваться нашим ресурсом. Все новые фильмы, игры, сериалы, книги и музыка за 2013 и 2014 годы через торрент бесплатно. Скачивайте фильмы в хорошем качестве, игры для пк, xbox, playstation без регистрации. У нас вы найдете новые Зарубежные сериалы и Русские сериалы 2013, 2014, 2015 годов. Оставайтесь с нами, качайте любимые фильмы, игры, сериалы, книги и музыку.