img image001 image001 image001 image001 image001 image001 image001 image001 image001 image001 image001 image001 image001 image001 image001

Planets Sun Sun Sun
Статистика раздачи
Автор: Снежана | Размер: 2.42 ГБ | Добавлен: 25 июл 2013
Раздают: 0    Качают: 3
Скачать торрент
Скачать торрент
Описание торрента

СообщениеДобавлено: 25 июл 2013 

#77

Название: Игра престолов
Оригинальное название: Game of Thrones
Жанр: фэнтези, драма, приключения
Год выпуска: 2013
Режиссёр: Алик Сахаров, Алекс Грейвз, Мишель Макларен
В ролях: Лена Хиди, Николай Костер-Валдау, Питер Динклейдж, Йен Глен, Эмилия Кларк, Кит Харингтон, Стивен Диллэйн, Лиам Каннингем, Кэрис ван Хаутен, Натали Дормер, Гвендолин Кристи, Ханна Мюррей…

Описание: Люди, отказавшиеся жить по законам Семи Королевств, получили название одичалых и были изгнаны за Стену, на страже которой стоит Ночной Дозор. Но орден был учрежден, чтобы защищать мир людей от совсем другой силы — Белых Ходоков, ныне пробудившихся и угрожающих всему живому. Король одичалых Манс готов на все, чтобы убедить Дозор пропустить свой народ за Стену.
Однако южные лорды и короли как и прежде глухи к сообщениям о скорой зиме, о пробуждении Иных и о вторжении одичалых. Король Станнис Баратеон скрылся после поражения на Черноводной в своем замке, король Бейлон Грейджой разоряет побережье, король Робб теряет союзников, а король Джоффри, напротив, имея в союзниках два самых влиятельных дома Королевств, надеется вскоре разбить всех своих врагов. Третий сезон Игры престолов поставлен по первой половине третьего тома Песни Льда и Пламени (Буря мечей).

Страна: США, Северная Ирландия / HBO, Northern Ireland Scr
Продолжительность: 01 х 00:53:15
Перевод: Профессиональный (многоголосый, закадровый) - NovaFilm
Перевод: Профессиональный (многоголосый, закадровый) - NewStudio & МЕКС.ИНФО
Перевод: Профессиональный (многоголосый, закадровый) - Jaskier Studio
Русские субтитры: Нет



Качество: WEB-DL 1080p
Формат: МКV
Видео: MPEG-4 AVC, ~ 4900 Кбит/с, 1920x1080
Аудио rus: АС3, 6 ch, 384 Кбит/с - NovaFilm
Аудио rus: АС3, 6 ch, 384 Кбит/с - NewStudio & МЕКС.ИНФО
Аудио rus: АС3, 2 ch, 384 Кбит/с - Jaskier
Аудио eng: АС3, 6 ch, 384 Кбит/с

01. Valar Dohaeris / Валар Дохариес
Общее
Уникальный идентификатор : 214999123596574817446897158637383384244 (0xA1BF533431A2DD30839ED00DFB40FCB4)
Полное имя : D:Igra.Prestolov.(3.sezon.).2013.x264.WEB-DL.1080p1.mkv
Формат : Matroska
Размер файла : 2,42 Гбайт
Продолжительность : 52 м.
Общий поток : 6603 Кбит/сек
Дата кодирования : UTC 2013-04-03 12:38:40
Программа кодирования : mkvmerge v4.0.0 ('The Stars were mine') сборка от Jun 6 2010 16:18:42
Библиотека кодирования : libebml v1.0.0 + libmatroska v1.0.0

Видео
Идентификатор : 1
Формат : AVC
Формат/Информация : Advanced Video Codec
Профиль формата : High@L4.0
Параметр CABAC формата : Да
Параметр ReFrames формата : 4 кадра
Параметры GOP формата : M=2, N=52
Идентификатор кодека : V_MPEG4/ISO/AVC
Продолжительность : 52 м.
Битрейт : 4936 Кбит/сек
Ширина : 1920 пикс.
Высота : 1080 пикс.
Соотношение сторон : 16:9
Частота кадров : 23,976 кадр/сек
Цветовое пространство : YUV
Подвыборка цветности : 4:2:0
Битовая глубина : 8 бит
Тип развёртки : Прогрессивная
Бит/(Пиксели*Кадры) : 0.099
Размер потока : 1,81 Гбайт (75%)
Язык : English
Основные цвета : BT.709-5, BT.1361, IEC 61966-2-4, SMPTE RP177
Характеристики трансфера : BT.709-5, BT.1361
Коэффициенты матрицы : BT.709-5, BT.1361, IEC 61966-2-4 709, SMPTE RP177

Аудио #1
Идентификатор : 2
Формат : AC-3
Формат/Информация : Audio Coding 3
Расширение режима : CM (complete main)
Идентификатор кодека : A_AC3
Продолжительность : 52 м.
Вид битрейта : Постоянный
Битрейт : 384 Кбит/сек
Каналы : 6 каналов
Расположение каналов : Front: L C R, Side: L R, LFE
Частота : 48,0 КГц
Битовая глубина : 16 бит
Метод сжатия : С потерями
Размер потока : 144 Мбайт (6%)

Аудио #2
Идентификатор : 3
Формат : AC-3
Формат/Информация : Audio Coding 3
Расширение режима : CM (complete main)
Идентификатор кодека : A_AC3
Продолжительность : 52 м.
Вид битрейта : Постоянный
Битрейт : 384 Кбит/сек
Каналы : 6 каналов
Расположение каналов : Front: L C R, Side: L R, LFE
Частота : 48,0 КГц
Битовая глубина : 16 бит
Метод сжатия : С потерями
Задержка видео : 14 мс.
Размер потока : 144 Мбайт (6%)
Заголовок : NovaFilm
Язык : Russian

Аудио #3
Идентификатор : 4
Формат : AC-3
Формат/Информация : Audio Coding 3
Расширение режима : CM (complete main)
Идентификатор кодека : A_AC3
Продолжительность : 52 м.
Вид битрейта : Постоянный
Битрейт : 384 Кбит/сек
Каналы : 2 канала
Расположение каналов : Front: L R
Частота : 48,0 КГц
Битовая глубина : 16 бит
Метод сжатия : С потерями
Размер потока : 144 Мбайт (6%)

Аудио #4
Идентификатор : 5
Формат : AC-3
Формат/Информация : Audio Coding 3
Расширение режима : CM (complete main)
Идентификатор кодека : A_AC3
Продолжительность : 52 м.
Вид битрейта : Постоянный
Битрейт : 384 Кбит/сек
Каналы : 6 каналов
Расположение каналов : Front: L C R, Side: L R, LFE
Частота : 48,0 КГц
Битовая глубина : 16 бит
Метод сжатия : С потерями
Задержка видео : 14 мс.
Размер потока : 144 Мбайт (6%)
Язык : English





Релиз от:



   Похожие торренты   Торрент   Размер 
В этой теме нет новых непрочитанных сообщений. Игра престолов / Game of Thrones [03x01] (2013) WEB-DLRip-AVC | LostFilm, AlexFilm, NovaFilm

1 | 3

1.15 ГБ

В этой теме нет новых непрочитанных сообщений. Игра престолов / Game of Thrones [03x01-10] (2013) WEB-DL 1080p от MediaClub

241 | 23

28.39 ГБ

В этой теме нет новых непрочитанных сообщений. Игра престолов / Game of Thrones [03x01-05] (2013) WEB-DL 1080p от MediaClub

0 | 3

14.01 ГБ

В этой теме нет новых непрочитанных сообщений. Игра престолов / Game of Thrones [03x01] (2013) HDTVRip 1080p | Kerob

0 | 3

3.3 ГБ

В этой теме нет новых непрочитанных сообщений. Игра престолов / Game of Thrones [S03] (2013) HDTVRip от Youtracker | NovaFilm

20 | 5

7.16 ГБ

В этой теме нет новых непрочитанных сообщений. Игра престолов / Game of Thrones [S03] (2013) HDTVRip, WEB-DLRip | NovaFilm

79 | 25

5.87 ГБ

В этой теме нет новых непрочитанных сообщений. Игра престолов / Game of Thrones [S03] (2013) HDTVRip | Jaskier

65 | 15

5.31 ГБ




Вы не можете начинать темы
Вы не можете отвечать на сообщения
Вы не можете редактировать свои сообщения
Вы не можете удалять свои сообщения
Вы не можете добавлять вложения

Перейти:  
Для Мосгорсуда, Роскомнадзора и рекламодателей: mosgorsud-torrent[собачка]yandex.ru
 Вход
ppkBB3cker v.2 © 2008-2014 @ PPK
[ Time : 4.134s | 16 Queries | GZIP : Off ]

Торрент трекер RUTOR.IN, Не можете зайти на rutor.org? Какой новый адрес рутор? Какое зеркало рутор? Не работает rutor.org и зеркала? Тогда наш торрент специально для вас. Rutor.in неофициальное зеркало rutor. В случае если у Вас заблокирован rutor или вдруг Вы не можете на него зайти, то Вы без труда сможете скачать бесплатно и без рекламы последние новинки кино, игр, сериалов и прочего у нас, на Rutor.in. Не нужно использовать прокси, чтобы зайти на рутор, достаточно воспользоваться нашим ресурсом. Все новые фильмы, игры, сериалы, книги и музыка за 2013 и 2014 годы через торрент бесплатно. Скачивайте фильмы в хорошем качестве, игры для пк, xbox, playstation без регистрации. У нас вы найдете новые Зарубежные сериалы и Русские сериалы 2013, 2014, 2015 годов. Оставайтесь с нами, качайте любимые фильмы, игры, сериалы, книги и музыку.