img image001 image001 image001 image001 image001 image001 image001 image001 image001 image001 image001 image001 image001 image001 image001

Planets Sun Sun Sun
Статистика раздачи
Автор: Снежана | Размер: 4.81 ГБ | Добавлен: 25 июл 2013
Раздают: 6    Качают: 4
Скачать торрент
Скачать торрент
Описание торрента

СообщениеДобавлено: 25 июл 2013 

#77
Год выпуска: 2006 – 2010
Страна: Великобритания
Жанр: комедия
Продолжительность: 00:23:00
Перевод: Профессиональный многоголосый закадровый (LostFilm)
Русские субтитры: нет

Режиссёр: Грэхэм Лайнхэн / Graham Linehan, Ричард Боден / Richard Boden, Бен Фуллер / Ben Fuller

В ролях: Крис О’Дауд, Ричард Айоэди, Кэтрин Паркинсон, Мэтт Берри, Кристофер Моррис

Описание: Действие сериала происходит в офисах «Reynholm Industries» — вымышленной британской корпорации, расположенной в центре Лондона. Сюжет строится вокруг проделок команды поддержки информационных технологий, состоящей из трёх человек и находящейся в грязном, запущенном подвале, сильно контрастирующим с блеском современной архитектуры и великолепными видами Лондона, доступных остальным подразделениям организации.

Сэмпл: http://multi-up.com/850208
Качество: PDTV-Rip
Формат: AVI

Видео:
624x352 (16/9), 23.976 fps, XViD ~886 Kbps (0.157 bit/pixel) – Сезон 1: 6 серий – HDTVRip
624x352 (16/9), 23.976 fps, XViD ~785 Kbps (0.143 bit/pixel) – Сезон 2: 6 серий
640x352 (16/9), 23.976 fps, XViD ~918 Kbps (0.163 bit/pixel) – Сезон 3: 6 серий
624x352 (16/9), 23.976 fps, XViD ~1 990 Kbps (0.362 bit/pixel) – Сезон 4: 6 серий – WEB-DLRip
Аудио:
Русский: 48 kHz, MPEG Layer 3, 2 ch, ~128.00 kbps constant – Сезоны 1 – 3
Русский: 48 kHz, MPEG Layer 3, 2 ch, ~192.00 kbps constant – Сезон 4

Раздача от: Релизер: Roman

General
Complete name : ..The IT CrowdSeason 1�1 – Yesterday's Jam.avi
Format : AVI
Format/Info : Audio Video Interleave
File size : 174 MiB
Duration : 23mn 38s
Overall bit rate : 1 027 Kbps
Writing application : Nandub v1.0rc2
Writing library : Nandub build 1853/release

Video
ID : 0
Format : MPEG-4 Visual
Format profile : Advanced Simple@L5
Format settings, BVOP : No
Format settings, QPel : No
Format settings, GMC : No warppoints
Format settings, Matrix : Default (MPEG)
Codec ID : XVID
Codec ID/Hint : XviD
Duration : 23mn 38s
Bit rate : 886 Kbps
Width : 640 pixels
Height : 352 pixels
Display aspect ratio : 16:9
Frame rate : 25.000 fps
Color space : YUV
Chroma subsampling : 4:2:0
Bit depth : 8 bits
Scan type : Progressive
Compression mode : Lossy
Bits/(Pixel*Frame) : 0.157
Stream size : 150 MiB (86%)
Writing library : XviD 1.0.3 (UTC 2004-12-20)

Audio
ID : 1
Format : MPEG Audio
Format version : Version 1
Format profile : Layer 3
Mode : Joint stereo
Mode extension : MS Stereo
Codec ID : 55
Codec ID/Hint : MP3
Duration : 23mn 38s
Bit rate mode : Constant
Bit rate : 128 Kbps
Channel(s) : 2 channels
Sampling rate : 48.0 KHz
Compression mode : Lossy
Stream size : 21.6 MiB (12%)
Alignment : Aligned on interleaves
Interleave, duration : 24 ms (0.60 video frame)
Interleave, preload duration : 480 ms







   Похожие торренты   Торрент   Размер 
В этой теме нет новых непрочитанных сообщений. Компьютерщики / The IT Crowd [S01-04] (2006-2010) HDTVRip, PDTVRip | LostFilm

56 | 14

4.36 ГБ

В этой теме нет новых непрочитанных сообщений. Компьютерщики / The IT Crowd [S01-04] (2006-2010) WEB-DLRip, PDTVRip | LostFilm

186 | 231

4.81 ГБ

В этой теме нет новых непрочитанных сообщений. Компьютерщики / The It Crowd [S01] (2006) SATRip | D

8 | 7

1.76 ГБ

В этой теме нет новых непрочитанных сообщений. Компьютерщики / The It Crowd [S02] (2007) SATRip | D

10 | 3

1.76 ГБ

В этой теме нет новых непрочитанных сообщений. Вдали от безумной толпы / Far from the Madding Crowd (1967) DVDRip от Youtracker | P

1 | 55

2.91 ГБ

В этой теме нет новых непрочитанных сообщений. Лица в толпе / Faces in the Crowd (2011) BDRip от Youtracker | P | лицензия

64 | 9

1.46 ГБ

В этой теме нет новых непрочитанных сообщений. Вдали от безумной толпы / Far from the Madding Crowd (1967) 2xDVD5 от Youtracker | P | лицензия

1 | 2

8.33 ГБ




Вы не можете начинать темы
Вы не можете отвечать на сообщения
Вы не можете редактировать свои сообщения
Вы не можете удалять свои сообщения
Вы не можете добавлять вложения

Перейти:  
Для Мосгорсуда, Роскомнадзора и рекламодателей: mosgorsud-torrent[собачка]yandex.ru
 Вход
ppkBB3cker v.2 © 2008-2014 @ PPK
[ Time : 0.036s | 14 Queries | GZIP : Off ]

Торрент трекер RUTOR.IN, Не можете зайти на rutor.org? Какой новый адрес рутор? Какое зеркало рутор? Не работает rutor.org и зеркала? Тогда наш торрент специально для вас. Rutor.in неофициальное зеркало rutor. В случае если у Вас заблокирован rutor или вдруг Вы не можете на него зайти, то Вы без труда сможете скачать бесплатно и без рекламы последние новинки кино, игр, сериалов и прочего у нас, на Rutor.in. Не нужно использовать прокси, чтобы зайти на рутор, достаточно воспользоваться нашим ресурсом. Все новые фильмы, игры, сериалы, книги и музыка за 2013 и 2014 годы через торрент бесплатно. Скачивайте фильмы в хорошем качестве, игры для пк, xbox, playstation без регистрации. У нас вы найдете новые Зарубежные сериалы и Русские сериалы 2013, 2014, 2015 годов. Оставайтесь с нами, качайте любимые фильмы, игры, сериалы, книги и музыку.