img image001 image001 image001 image001 image001 image001 image001 image001 image001 image001 image001 image001 image001 image001 image001

Planets Sun Sun Sun
Статистика раздачи
Автор: Снежана | Размер: 2.06 ГБ | Добавлен: 25 июл 2013
Раздают: 0    Качают: 3
Скачать торрент
Скачать торрент
Описание торрента

СообщениеДобавлено: 25 июл 2013 

#77

Информация о фильме
Оригинальное название: Группа риска
Год выхода: 1991
Жанр: Социальная драма, экранизация
Режиссер: Владимир Лаптев
В ролях: Алексей Булдаков, Любовь Руденко, Андрей Щербаков, Ольга Конская, Елена Аминова, Александр Волхонский, Софья Тиунова, Тамара Акулова, Любовь Теплова, Галя Новенц
О фильме: Сварщик Сладков возвращается с женой Тамарой на Родину после продолжительной командировки в Африку. У них нет детей, а где-то в сиротском приюте живет сын Тамариной сестры. Группа риска — это дети с сенсорным голоданием. Сложная задача — найти себе сына, а ситуация складывается еще более неожиданно.

Страна: СССР
Студия: Свердловская киностудия, Союзтелефильм, компания "Евразия"
Продолжительность: 3 x ~ 01:05:00
Язык: Русский
Субтитры: Нет

Файл
Исходник: DVD5 R5
Тип релиза: DVDRip
Видео: 640x480 (1.33:1), 23.976 fps, XviD ~1105 kbps avg, 0.15 bit/pixel
Аудио: 48 kHz, AC3 6.0 ~384.00 kbps avg
Общее
Полное имя : D:РаздачиGruppa.riska.(3.serii.iz.3).1991.XviD.DVDRipGruppa.riska.(1.serij.iz.3).1991.XviD.DVDRip.avi
Формат : AVI
Формат/Информация : Audio Video Interleave
Размер файла : 702 Мбайт
Продолжительность : 1 ч. 5 м.
Общий поток : 1499 Кбит/сек
Программа кодирования : VirtualDubMod 1.5.10.2 (build 2540/release)
Библиотека кодирования : VirtualDubMod build 2540/release

Видео
Идентификатор : 0
Формат : MPEG-4 Visual
Профиль формата : Advanced Simple@L5
Параметр BVOP формата : 2
Параметр QPel формата : Нет
Параметр GMC формата : Без точки перехода
Параметр матрицы формата : Default (MPEG)
Идентификатор кодека : XVID
Идентификатор кодека/Подсказка : XviD
Продолжительность : 1 ч. 5 м.
Битрейт : 1106 Кбит/сек
Ширина : 640 пикселей
Высота : 480 пикселей
Соотношение сторон : 4:3
Частота кадров : 23,976 кадра/сек
Цветовое пространство : YUV
Субдискретизация насыщенности : 4:2:0
Битовая глубина : 8 бит
Тип развёртки : Прогрессивная
Метод сжатия : С потерями
Бит/(Пиксели*Кадры) : 0.150
Размер потока : 518 Мбайт (74%)
Библиотека кодирования : XviD 1.2.1 (UTC 2008-12-04)

Аудио
Идентификатор : 1
Формат : AC-3
Формат/Информация : Audio Coding 3
Расширение режима : CM (complete main)
Параметр Endianness формата : Big
Идентификатор кодека : 2000
Продолжительность : 1 ч. 5 м.
Вид битрейта : Постоянный
Битрейт : 384 Кбит/сек
Каналы : 6 каналов
Расположение каналов : Front: L C R, Side: L R, LFE
Частота : 48,0 КГц
Битовая глубина : 16 бит
Метод сжатия : С потерями
Размер потока : 180 Мбайт (26%)
Выравнивание : Разделение по промежуткам
Продолжительность промежутка : 42 мс. (1,00 видеокадр)
Время предзагрузки промежутка : 500 мс.





   Похожие торренты   Торрент   Размер 
В этой теме нет новых непрочитанных сообщений. Группа риска / Carnal Crimes (1991) DVDRip | P2

39 | 9

854.07 МБ

В этой теме нет новых непрочитанных сообщений. Группа риска (Арбат шоу) (2004) DVDRip

0 | 30

1.36 ГБ

В этой теме нет новых непрочитанных сообщений. Фактор риска / At Risk (2010) DVDRip | Лицензия

1 | 2

1.37 ГБ

В этой теме нет новых непрочитанных сообщений. Цена риска / Le Prix du danger (1983) DVDRip

6 | 4

741.79 МБ

В этой теме нет новых непрочитанных сообщений. Цена риска / Le Prix Du Danger (1983) DVDRip-AVC | D, P

80 | 10

2.1 ГБ

В этой теме нет новых непрочитанных сообщений. Предел риска / Margin Call (2011) DVDRip | Лицензия

10 | 4

702.47 МБ

В этой теме нет новых непрочитанных сообщений. Степень риска / Meltdown / Shu dan long wei (1995) DVDRip от Lebanon

41 | 6

1.34 ГБ




Вы не можете начинать темы
Вы не можете отвечать на сообщения
Вы не можете редактировать свои сообщения
Вы не можете удалять свои сообщения
Вы не можете добавлять вложения

Перейти:  
Для Мосгорсуда, Роскомнадзора и рекламодателей: mosgorsud-torrent[собачка]yandex.ru
 Вход
ppkBB3cker v.2 © 2008-2014 @ PPK
[ Time : 0.036s | 15 Queries | GZIP : Off ]

Торрент трекер RUTOR.IN, Не можете зайти на rutor.org? Какой новый адрес рутор? Какое зеркало рутор? Не работает rutor.org и зеркала? Тогда наш торрент специально для вас. Rutor.in неофициальное зеркало rutor. В случае если у Вас заблокирован rutor или вдруг Вы не можете на него зайти, то Вы без труда сможете скачать бесплатно и без рекламы последние новинки кино, игр, сериалов и прочего у нас, на Rutor.in. Не нужно использовать прокси, чтобы зайти на рутор, достаточно воспользоваться нашим ресурсом. Все новые фильмы, игры, сериалы, книги и музыка за 2013 и 2014 годы через торрент бесплатно. Скачивайте фильмы в хорошем качестве, игры для пк, xbox, playstation без регистрации. У нас вы найдете новые Зарубежные сериалы и Русские сериалы 2013, 2014, 2015 годов. Оставайтесь с нами, качайте любимые фильмы, игры, сериалы, книги и музыку.
cron