img image001 image001 image001 image001 image001 image001 image001 image001 image001 image001 image001 image001 image001 image001 image001

Planets Sun Sun Sun
Статистика раздачи
Автор: Снежана | Размер: 1.76 ГБ | Добавлен: 25 июл 2013
Раздают: 4    Качают: 2
Скачать торрент
Скачать торрент
Описание торрента

СообщениеДобавлено: 25 июл 2013 

#77

Название: Орлиное сердце
Оригинальное название: Eagleheart
Год выпуска: 2012
Жанр: комедия, ситком
Режиссер: Michael Koman, Andrew Weinberg
В ролях: Крис Эллиот, Мария Тэйер, Бретт Гельман, Майкл Глэдис и др.

Описание: Полицейский маршал Крис Мансаро - настоящий рейнджер. Его побаиваются не только нарушители закона, но даже собственные начальники. Крис – совершенное орудие против преступности, по случаю обуявшей его родной город. Он не знает жалости к врагам, а в отношении с женщинами - настоящий Мачо. На его стороне закон и правопорядок, сила и несокрушимость, доблесть и честь. Лихо закрученный детективный сюжет коротких серий, держит зрителя в остром напряжении на протяжении всего просмотра. Создатели умудрились заложить в каждый столь лаконичный отрезок, оригинальную детективную комбинацию: с яркой сюжетной завязкой, развитием и совершенно непредсказуемой развязкой. А, эффектно поставленные трюки, насыщенные зрелищными перестрелками сцены, не дадут вам оторваться от экрана до просмотра последней серии сезона



Страна: CША
Продолжительность: 12 x ~ 00:12:00
Перевод: Профессиональный (многоголосый, закадровый) - LostFilm
Субтитры: Нет



Качество: HDTVRip
Формат: AVI
Видео: XviD, 720x400, 1300 Kbps
Аудио: MP3, 48.0 KHz, 2 ch, 128 Kbps

General
Complete name : I:ЗАКАЧКИОрлиное сердце Сезон 2 (LostFilm)Eagleheart.S02E01.rus.LostFilm.TV.avi
Format : AVI
Format/Info : Audio Video Interleave
File size : 120 MiB
Duration : 11mn 25s
Overall bit rate : 1 471 Kbps
Writing application : Nandub v1.0rc2
Writing library : Nandub build 1853/release

Video
ID : 0
Format : MPEG-4 Visual
Format profile : Simple@L3
Format settings, BVOP : 1
Format settings, QPel : No
Format settings, GMC : No warppoints
Format settings, Matrix : Default (H.263)
Codec ID : XVID
Codec ID/Hint : XviD
Duration : 11mn 25s
Bit rate : 1 331 Kbps
Width : 720 pixels
Height : 400 pixels
Display aspect ratio : 16:9
Frame rate : 23.976 fps
Color space : YUV
Chroma subsampling : 4:2:0
Bit depth : 8 bits
Scan type : Progressive
Compression mode : Lossy
Bits/(Pixel*Frame) : 0.193
Stream size : 109 MiB (90%)
Writing library : XviD 1.2.1 (UTC 2008-12-04)

Audio
ID : 1
Format : MPEG Audio
Format version : Version 1
Format profile : Layer 3
Mode : Joint stereo
Mode extension : MS Stereo
Codec ID : 55
Codec ID/Hint : MP3
Duration : 11mn 25s
Bit rate mode : Constant
Bit rate : 128 Kbps
Channel(s) : 2 channels
Sampling rate : 48.0 KHz
Compression mode : Lossy
Stream size : 10.5 MiB (9%)
Alignment : Aligned on interleaves
Interleave, duration : 24 ms (0.58 video frame)
Interleave, preload duration : 480 ms




Релиз от:



   Похожие торренты   Торрент   Размер 
В этой теме нет новых непрочитанных сообщений. Орлиное Сердце / Eagleheart [S02] (2012) HDTVRip | LostFilm

0 | 2

1.76 ГБ

В этой теме нет новых непрочитанных сообщений. Орлиное сердце / Eagleheart [S01] (2011) HDTVRip | P LostFilm

0 | 1

1.69 ГБ

В этой теме нет новых непрочитанных сообщений. Орлиное сердце / Eagleheart [S01-03] (2011-2014) HDTVRip, WEB-DLRip | LostFilm

17 | 11

4.88 ГБ

В этой теме нет новых непрочитанных сообщений. Орлиное Сердце / Eagleheart [S03] (2013) WEB-DLRip | LostFilm

12 | 5

1.43 ГБ

В этой теме нет новых непрочитанных сообщений. Орлиное Сердце / Eagleheart [03х01-09] (2013) WEB-DLRip | LostFilm

78 | 15

1.19 ГБ

В этой теме нет новых непрочитанных сообщений. Орлиное сердце / Eagleheart [S01] (2011) HDTVRip От Screadow

0 | 2

1.3 ГБ

В этой теме нет новых непрочитанных сообщений. Ледяное сердце / Сердце зимой / Зима в сердце / Un coeur en hiver (1992) DVDRip

24 | 9

1.37 ГБ




Вы не можете начинать темы
Вы не можете отвечать на сообщения
Вы не можете редактировать свои сообщения
Вы не можете удалять свои сообщения
Вы не можете добавлять вложения

Перейти:  
Для Мосгорсуда, Роскомнадзора и рекламодателей: mosgorsud-torrent[собачка]yandex.ru
 Вход
ppkBB3cker v.2 © 2008-2014 @ PPK
[ Time : 0.027s | 14 Queries | GZIP : Off ]

Торрент трекер RUTOR.IN, Не можете зайти на rutor.org? Какой новый адрес рутор? Какое зеркало рутор? Не работает rutor.org и зеркала? Тогда наш торрент специально для вас. Rutor.in неофициальное зеркало rutor. В случае если у Вас заблокирован rutor или вдруг Вы не можете на него зайти, то Вы без труда сможете скачать бесплатно и без рекламы последние новинки кино, игр, сериалов и прочего у нас, на Rutor.in. Не нужно использовать прокси, чтобы зайти на рутор, достаточно воспользоваться нашим ресурсом. Все новые фильмы, игры, сериалы, книги и музыка за 2013 и 2014 годы через торрент бесплатно. Скачивайте фильмы в хорошем качестве, игры для пк, xbox, playstation без регистрации. У нас вы найдете новые Зарубежные сериалы и Русские сериалы 2013, 2014, 2015 годов. Оставайтесь с нами, качайте любимые фильмы, игры, сериалы, книги и музыку.