img image001 image001 image001 image001 image001 image001 image001 image001 image001 image001 image001 image001 image001 image001 image001

Planets Sun Sun Sun
Статистика раздачи
Автор: Снежана | Размер: 3.67 ГБ | Добавлен: 25 июл 2013
Раздают: 5    Качают: 3
Скачать торрент
Скачать торрент
Описание торрента

СообщениеДобавлено: 25 июл 2013 



Правила совместной жизни / Rules of Engagement



Год выпуска: 2011
Страна: США
Жанр: комедия
Продолжительность: ~ 22 минуты
Перевод: Профессиональный (многоголосый, закадровый) - SET Россия
Субтитры: Нет
Режиссёр: Тед Уасс



В ролях: Мегин Прайс, Патрик Варбертон, Бьянка Кайлич, Оливер Хадсон, Дэвид Спейд, Эндрю Агиля


Описание: Сериал о соседях по лестничной площадке, двух парах. Одна пара — женаты уже 15 лет, другая — только съехались вместе. Они общаются между собой и делятся впечатлениями о совместной жизни. Пятый персонаж — убеждённый холостяк.



Качество: WEB-DLRip
Формат: AVI
Видео кодек: XviD
Аудио кодек: MP3
Видео: 720x400 (16:9), 23.976 fps, ~1350 kbps, ~0.20 bit/pixel
Аудио Rus: 48 kHz, 2 ch, ~128 kbps |SET Россия|
Аудио Eng: 48 kHz, 2 ch, ~128 kbps |Original|



Релиз:

Озвучка: SET Россия




Общее
Полное имя : F:Rules.of.Engagement.s05.WEB-DLRip.Rus.EngRules.of.Engagement.s05e01.WEBDLRip.NewStudio.TV.avi
Формат : AVI
Формат/Информация : Audio Video Interleave
Размер файла : 251 Мбайт
Продолжительность : 21 м.
Общий поток : 1660 Кбит/сек
Программа кодирования : VirtualDubMod 1.5.10.2 (build 2540/release)
Библиотека кодирования : VirtualDubMod build 2540/release

Видео
Идентификатор : 0
Формат : MPEG-4 Visual
Профиль формата : Advanced Simple@L5
Параметр BVOP формата : 2
Параметр QPel формата : Нет
Параметр GMC формата : Без точки перехода
Параметр матрицы формата : Default (MPEG)
Идентификатор кодека : XVID
Идентификатор кодека/Подсказка : XviD
Продолжительность : 21 м.
Битрейт : 1390 Кбит/сек
Ширина : 720 пикс.
Высота : 400 пикс.
Соотношение сторон : 16:9
Частота кадров : 23,976 кадр/сек
Цветовое пространство : YUV
Подвыборка цветности : 4:2:0
Битовая глубина : 8 бит
Тип развёртки : Прогрессивная
Метод сжатия : С потерями
Бит/(Пиксели*Кадры) : 0.201
Размер потока : 210 Мбайт (84%)
Библиотека кодирования : XviD 64

Аудио #1
Идентификатор : 1
Формат : MPEG Audio
Версия формата : Version 1
Профиль формата : Layer 3
Режим : Joint stereo
Расширение режима : MS Stereo
Идентификатор кодека : 55
Идентификатор кодека/Подсказка : MP3
Продолжительность : 21 м.
Вид битрейта : Постоянный
Битрейт : 128 Кбит/сек
Каналы : 2 канала
Частота : 48,0 КГц
Метод сжатия : С потерями
Размер потока : 19,3 Мбайт (8%)
Выравнивание : Соединение по промежуткам
Продолжительность промежутка : 42 мс. (1,00 видеокадр)
Время предзагрузки промежутка : 504 ms

Аудио #2
Идентификатор : 2
Формат : MPEG Audio
Версия формата : Version 1
Профиль формата : Layer 3
Режим : Joint stereo
Расширение режима : MS Stereo
Идентификатор кодека : 55
Идентификатор кодека/Подсказка : MP3
Продолжительность : 21 м.
Вид битрейта : Постоянный
Битрейт : 128 Кбит/сек
Каналы : 2 канала
Частота : 48,0 КГц
Метод сжатия : С потерями
Размер потока : 19,3 Мбайт (8%)
Выравнивание : Соединение по промежуткам
Продолжительность промежутка : 42 мс. (1,00 видеокадр)
Время предзагрузки промежутка : 504 ms



   Похожие торренты   Торрент   Размер 
В этой теме нет новых непрочитанных сообщений. Правила совместной жизни / Rules of Engagement [06x01-02] (2011) HDTVRip | L1

0 | 2

377.71 МБ

В этой теме нет новых непрочитанных сообщений. Правила совместной жизни / Rules of Engagement [S05] (2010-2011) WEB-DLRip | SET

0 | 4

5.87 ГБ

В этой теме нет новых непрочитанных сообщений. Правила совместной жизни / Rules of Engagement [S04] (2010) WEB-DLRip | SET

2 | 2

3.18 ГБ

В этой теме нет новых непрочитанных сообщений. Правила совместной жизни / Rules of Engagement [S07] (2013) WEB-DLRip

3 | 5

3.17 ГБ

В этой теме нет новых непрочитанных сообщений. Правила совместной жизни / Rules of Engagement [S01-07] (2007-2013) WEB-DLRip | P, L2

8 | 15

28.47 ГБ

В этой теме нет новых непрочитанных сообщений. Правила совместной жизни / Rules of Engagement [S04] (2010) WEB-DLRip | BaibaKo

0 | 2

3.44 ГБ

В этой теме нет новых непрочитанных сообщений. Правила совместной жизни / Rules of Engagement [06х01] (2012) WEB-DLRip | BaibaKo

1 | 2

310.57 МБ




Вы не можете начинать темы
Вы не можете отвечать на сообщения
Вы не можете редактировать свои сообщения
Вы не можете удалять свои сообщения
Вы не можете добавлять вложения

Перейти:  
Для Мосгорсуда, Роскомнадзора и рекламодателей: mosgorsud-torrent[собачка]yandex.ru
 Вход
ppkBB3cker v.2 © 2008-2014 @ PPK
[ Time : 0.221s | 14 Queries | GZIP : Off ]

Торрент трекер RUTOR.IN, Не можете зайти на rutor.org? Какой новый адрес рутор? Какое зеркало рутор? Не работает rutor.org и зеркала? Тогда наш торрент специально для вас. Rutor.in неофициальное зеркало rutor. В случае если у Вас заблокирован rutor или вдруг Вы не можете на него зайти, то Вы без труда сможете скачать бесплатно и без рекламы последние новинки кино, игр, сериалов и прочего у нас, на Rutor.in. Не нужно использовать прокси, чтобы зайти на рутор, достаточно воспользоваться нашим ресурсом. Все новые фильмы, игры, сериалы, книги и музыка за 2013 и 2014 годы через торрент бесплатно. Скачивайте фильмы в хорошем качестве, игры для пк, xbox, playstation без регистрации. У нас вы найдете новые Зарубежные сериалы и Русские сериалы 2013, 2014, 2015 годов. Оставайтесь с нами, качайте любимые фильмы, игры, сериалы, книги и музыку.