img image001 image001 image001 image001 image001 image001 image001 image001 image001 image001 image001 image001 image001 image001 image001

Planets Sun Sun Sun
Статистика раздачи
Автор: Снежана | Размер: 7.55 ГБ | Добавлен: 25 июл 2013
Раздают: 8    Качают: 1
Скачать торрент
Скачать торрент
Описание торрента

СообщениеДобавлено: 25 июл 2013 

#77

Название: Хэтфилды и МакКои
Оригинальное название: Hatfields & McCoys
Год выпуска: 2012
Жанр: Вестерн, драма, мелодрама, военный, история
Субтитры: Нет
Режиссер: Кевин Рейнольдс
В ролях: Кевин Костнер, Билл Пэкстон, Мэтт Барр, Том Беренджер, Пауэрс Бут, Эндрю Ховард, Джена Мэлоун, Сара Пэриш, Линдсей Палсифер, Ронан Вайберт, Джо Эбсолом, Ноэль Фишер, Бойд Холбрук, Том МакКэй, Сэм Рейд, Мэр Уиннингхэм, Грег Пэтмор, Макс Дикон, Джон Белл, Ник Даннинг, Кэти Гриффитс, Джой МакБринн, Адам Джонс, Жилон Гай, Дэмиан О’Хейр, Энди Гэтергуд, Ноа Тейлор, Ллойд Хатчинсон, Майкл Греко, Бен Картрайт, Джек Лэски, Джонатан Фредрик, Майкл Джибсон

Описание: Это реальная американская история легендарной семейной вражды, которая длилась несколько десятилетий, и почти развязала войну между Кентукки и Западной Виргинией. Хроника столкновения кланов, наполненная страстью, мужеством, местью, самопожертвованием, преступлениями и обвинениями, беспрестанно меняющими обе семьи, и места где они жили. Сага начинается с Уильяма Андерсона Хэтфилда и Рэндала МакКоя. Близкие друзья и товарищи, ближе к концу Гражданской Войны, они возвращаются в свои дома — Хэтфилд в Западную Виргинию, МакКой, по соседству через реку, в Кентукки — и тут растущие напряжения, недопонимания и обиды, начинают перерастать в тотальные войны между их семьями. Конфликт между кланами втянул в себя всех: друзей, соседей и множество людей, не имеющих отношения к происходящему, в результате чего два штата были поставленные перед угрозой новой гражданской войны.

Страна: США, Thinkfactory Media
Продолжительность: 3 x ~ 01:40:00
Перевод: Профессиональный (многоголосый, закадровый) - AlexFilm



Качество: BDRip-AVC
Формат: MPEG-4
Аудио кодек: AC3
Видео: AVC, ~ 2825 Кбит/с, 1024x576, 23,976 кадра/сек
Аудио rus: 6 ch, 448 Кбит/с, 48,0 КГц
Аудио eng: 6 ch, 448 Кбит/с, 48,0 КГц

Семпл

Полное имя: E:Hetfildi.i.MakKoi.(1.sezon.1-3.serii.iz.3).2012.x264.BDRip.(AVC).tahiy.Hetfildi.i.MakKoi.2012.Part.1.BDRip.(AVC).tahiy.mkv
Формат : Matroska
Версия формата : Version 1
Размер файла : 2,67 Гбайт
Продолжительность : 1 ч. 42 м.
Общий поток : 3725 Кбит/сек
Название фильма : - = Rip by tahiy = -
Дата кодирования : UTC 2012-09-21 16:58:57
Программа кодирования : mkvmerge v2.1.0 ('Another Place To Fall') built on Aug 19 2007 13:40:07
Библиотека кодирования : libebml v0.7.7 + libmatroska v0.8.1

Видео
Идентификатор : 1
Формат : AVC
Формат/Информация : Advanced Video Codec
Профиль формата : High@L4.1
Параметр CABAC формата : Да
Параметр ReFrames формата : 8 кадров
Идентификатор кодека : V_MPEG4/ISO/AVC
Продолжительность : 1 ч. 42 м.
Битрейт : 2826 Кбит/сек
Ширина : 1024 пикселя
Высота : 576 пикселей
Соотношение сторон : 16:9
Частота кадров : 23,976 кадра/сек
Цветовое пространство : YUV
Субдискретизация насыщенности : 4:2:0
Битовая глубина : 8 бит
Тип развёртки : Прогрессивная
Бит/(Пиксели*Кадры) : 0.200
Размер потока : 1,97 Гбайт (74%)
Заголовок : - = Rip by tahiy = -
Библиотека кодирования : x264 core 120 r2164 da19765
Настройки программы : cabac=1 / ref=8 / deblock=1:-3:-3 / analyse=0x3:0x133 / me=hex / subme=9 / psy=1 / psy_rd=1.00:0.20 / mixed_ref=1 / me_range=16 / chroma_me=1 / trellis=2 / 8x8dct=1 / cqm=0 / deadzone=21,11 / fast_pskip=0 / chroma_qp_offset=-3 / threads=3 / sliced_threads=0 / nr=0 / decimate=1 / interlaced=0 / bluray_compat=0 / constrained_intra=0 / bframes=3 / b_pyramid=2 / b_adapt=1 / b_bias=0 / direct=3 / weightb=0 / open_gop=0 / weightp=2 / keyint=48 / keyint_min=23 / scenecut=40 / intra_refresh=0 / rc_lookahead=40 / rc=2pass / mbtree=1 / bitrate=2825 / ratetol=1.0 / qcomp=0.60 / qpmin=10 / qpmax=51 / qpstep=4 / cplxblur=20.0 / qblur=0.5 / ip_ratio=1.40 / aq=1:1.00
Язык : English
Default : Да
Forced : Да

Аудио #1
Идентификатор : 2
Формат : AC-3
Формат/Информация : Audio Coding 3
Расширение режима : CM (complete main)
Идентификатор кодека : A_AC3
Продолжительность : 1 ч. 42 м.
Вид битрейта : Постоянный
Битрейт : 448 Кбит/сек
Каналы : 6 каналов
Расположение каналов : Front: L C R, Side: L R, LFE
Частота : 48,0 КГц
Битовая глубина : 16 бит
Метод сжатия : С потерями
Размер потока : 329 Мбайт (12%)
Default : Да
Forced : Да

Аудио #2
Идентификатор : 3
Формат : AC-3
Формат/Информация : Audio Coding 3
Расширение режима : CM (complete main)
Идентификатор кодека : A_AC3
Продолжительность : 1 ч. 42 м.
Вид битрейта : Постоянный
Битрейт : 448 Кбит/сек
Каналы : 6 каналов
Расположение каналов : Front: L C R, Side: L R, LFE
Частота : 48,0 КГц
Битовая глубина : 16 бит
Метод сжатия : С потерями
Размер потока : 329 Мбайт (12%)
Язык : English
Default : Нет
Forced : Нет






Релиз от:



   Похожие торренты   Торрент   Размер 
В этой теме нет новых непрочитанных сообщений. Хэтфилды и МакКои / Hatfields & McCoys [01-03 из 03] (2012) BDRip | ViruseProject

0 | 1

2.19 ГБ

В этой теме нет новых непрочитанных сообщений. Хэтфилды и Маккои / Hatfields & McCoys [01-03 из 03] (2012) BDRip от HQRips *Proper* | P

14 | 5

5.12 ГБ

В этой теме нет новых непрочитанных сообщений. Хэтфилды и Маккои / Hatfields & McCoys [01-03 из 03] (2012) BDRip-AVC 720р l AlexFilm

8 | 7

9.36 ГБ

В этой теме нет новых непрочитанных сообщений. Хэтфилды и МакКои / Hatfields & McCoys [01-03 из 03] (2012) BDRip 1080p от Hatfield.. | P, L

3 | 24

22.09 ГБ

В этой теме нет новых непрочитанных сообщений. Хэтфилды и МакКои / Hatfields & McCoys [01-03 из 03] (2012) BDRip 720p | ViruseProject

5 | 1

9.22 ГБ

В этой теме нет новых непрочитанных сообщений. Хэтфилды и МакКои / Hatfields & McCoys [01-03 из 03] (2012) BDRip 720p от HQ-ViDEO

30 | 9

11.64 ГБ

В этой теме нет новых непрочитанных сообщений. Хэтфилды и МакКои / Hatfields & McCoys [01-03 из 03] (2012) HDRip | AlexFilm

30 | 4

2.18 ГБ




Вы не можете начинать темы
Вы не можете отвечать на сообщения
Вы не можете редактировать свои сообщения
Вы не можете удалять свои сообщения
Вы не можете добавлять вложения

Перейти:  
Для Мосгорсуда, Роскомнадзора и рекламодателей: mosgorsud-torrent[собачка]yandex.ru
 Вход
ppkBB3cker v.2 © 2008-2014 @ PPK
[ Time : 0.057s | 14 Queries | GZIP : Off ]

Торрент трекер RUTOR.IN, Не можете зайти на rutor.org? Какой новый адрес рутор? Какое зеркало рутор? Не работает rutor.org и зеркала? Тогда наш торрент специально для вас. Rutor.in неофициальное зеркало rutor. В случае если у Вас заблокирован rutor или вдруг Вы не можете на него зайти, то Вы без труда сможете скачать бесплатно и без рекламы последние новинки кино, игр, сериалов и прочего у нас, на Rutor.in. Не нужно использовать прокси, чтобы зайти на рутор, достаточно воспользоваться нашим ресурсом. Все новые фильмы, игры, сериалы, книги и музыка за 2013 и 2014 годы через торрент бесплатно. Скачивайте фильмы в хорошем качестве, игры для пк, xbox, playstation без регистрации. У нас вы найдете новые Зарубежные сериалы и Русские сериалы 2013, 2014, 2015 годов. Оставайтесь с нами, качайте любимые фильмы, игры, сериалы, книги и музыку.