img image001 image001 image001 image001 image001 image001 image001 image001 image001 image001 image001 image001 image001 image001 image001

Planets Sun Sun Sun
Статистика раздачи
Автор: Снежана | Размер: 8.78 ГБ | Добавлен: 25 июл 2013
Раздают: 322    Качают: 89
Скачать торрент
Скачать торрент
Описание торрента

СообщениеДобавлено: 25 июл 2013 

#77
Год выпуска: 2012
Страна: Россия
Студия: Про-Синема продакшн
Жанр: криминал
Продолжительность: серия ~ 46 мин.

Перевод: не требуется
Субтитры: нет
Оригинальная аудиодорожка: русский

Режиссер: Ярослав Мочалов

В ролях: Валерий Золотухин, Андрей Феськов, Вячеслав Крикунов, Яна Гладких, Дарья Мороз, Павел Баршак, Владимир Зайцев, Игорь Бочкин, Алексей Гуськов, Владимир Капустин...

Описание:
Дружная команда молодых талантливых учёных разрабатывают идею, которая может в корне перевернуть принципы индивидуальной защиты силовых структур и армии. Они живут полнокровной жизнью в своём любимом деле, в любви к девушкам, в настоящей мужской дружбе и выручке. Но непредвиденная ситуация, подставившая под удар одного из них, заставляет пересмотреть привычные человеческие принципы. И в этой обстановке начинают работать более приземлённые, но в чём-то более справедливые «блатные» понятия. Лишь они, и сила духа помогут интеллигентным героям выбраться из скользкой ямы интриг, коррупции и обычного человеческого предательства...





Исходник: 2xDVD9 R5
Тип релиза: DVDRip
Контейнер: AVI

Видео: 688x384 (16:9), 25 fps, XviD ~ 1017 kbps avg, 0.154 bit/pixel
Аудио: 48 kHz, Dolby AC3 2.0, 96,0 kbps

Раздача от:
Общее
Полное имя : Krapljonyj.2012.DVDRip_[Youtracker]_by_AVP Studio�1.avi
Формат : AVI
Формат/Информация : Audio Video Interleave
Размер файла : 370 Мбайт
Продолжительность : 46 м.
Общий поток : 1123 Кбит/сек
Программа кодирования : VirtualDubMod 1.5.10.3 | www.virtualdub-fr.org || (build 2550/release)
Библиотека кодирования : VirtualDubMod build 2550/release

Видео
Идентификатор : 0
Формат : MPEG-4 Visual
Профиль формата : Advanced Simple@L5
Параметр BVOP формата : 1
Параметр QPel формата : Нет
Параметр GMC формата : Без точки перехода
Параметр матрицы формата : Выборочная
Идентификатор кодека : XVID
Идентификатор кодека/Подсказка : XviD
Продолжительность : 46 м.
Битрейт : 1017 Кбит/сек
Ширина : 688 пикселей
Высота : 384 пикселя
Соотношение сторон : 16:9
Частота кадров : 25,000 кадров/сек
Цветовое пространство : YUV
Субдискретизация насыщенности : 4:2:0
Битовая глубина : 8 бит
Тип развёртки : Прогрессивная
Метод сжатия : С потерями
Бит/(Пиксели*Кадры) : 0.154
Размер потока : 335 Мбайт (91%)
Библиотека кодирования : XviD 65

Аудио
Идентификатор : 1
Формат : AC-3
Формат/Информация : Audio Coding 3
Расширение режима : CM (complete main)
Идентификатор кодека : 2000
Продолжительность : 46 м.
Вид битрейта : Постоянный
Битрейт : 96,0 Кбит/сек
Каналы : 2 канала
Расположение каналов : Front: L R
Частота : 48,0 КГц
Битовая глубина : 16 бит
Метод сжатия : С потерями
Размер потока : 31,6 Мбайт (9%)
Выравнивание : Разделение по промежуткам
Продолжительность промежутка : 40 мс. (1,00 видеокадр)
Время предзагрузки промежутка : 500 мс



Релиз рассчитан на 2 DVD5

http://rutor.org/torrent/270555
http://www.check2pic.ru/compare/28424/
У конкурента обрезана полезная площадь кадра, видимо для того что бы попасть в аспект, кстати не попал. По ширине была обрезка ровно 32 пиксела, конкурент растянул 688 до 720, соответственно картинка размылась.
И не могу понять где конкурент взял звук 128 kbps MP3, в оригинале AC3 96 kbps, если он его перекодировал из 96 в 128, то это вообще запрещено.



   Похожие торренты   Торрент   Размер 
В этой теме нет новых непрочитанных сообщений. Краплёный [01-24 из 24] (2012) 2хDVD9 от Youtracker | лицензия

9 | 8

15.74 ГБ

В этой теме нет новых непрочитанных сообщений. Краплёный [01-24 из 24] (2012) DVDRip-AVC

75 | 92

12.86 ГБ

В этой теме нет новых непрочитанных сообщений. Краплёный [01-24 из 24] (2012) DVDRip от Generalfilm | КПК

40 | 106

4.13 ГБ

В этой теме нет новых непрочитанных сообщений. Краплёный [01-24 из 24] (2012) DVDRip от Generalfilm

486 | 33

10.86 ГБ

В этой теме нет новых непрочитанных сообщений. Краплёный [01-24 из 24] (2012) DVDRip от MediaClub | КПК

296 | 230

5.19 ГБ

В этой теме нет новых непрочитанных сообщений. Краплёный [01-24 из 24] (2012) WEB-DLRip-AVC от MediaClub

145 | 92

15.51 ГБ

В этой теме нет новых непрочитанных сообщений. 1812 [01-04 из 04] (2012) DVDRip-AVC от Youtracker

4 | 3

2.91 ГБ




Вы не можете начинать темы
Вы не можете отвечать на сообщения
Вы не можете редактировать свои сообщения
Вы не можете удалять свои сообщения
Вы не можете добавлять вложения

Перейти:  
Для Мосгорсуда, Роскомнадзора и рекламодателей: mosgorsud-torrent[собачка]yandex.ru
 Вход
ppkBB3cker v.2 © 2008-2014 @ PPK
[ Time : 0.083s | 14 Queries | GZIP : Off ]

Торрент трекер RUTOR.IN, Не можете зайти на rutor.org? Какой новый адрес рутор? Какое зеркало рутор? Не работает rutor.org и зеркала? Тогда наш торрент специально для вас. Rutor.in неофициальное зеркало rutor. В случае если у Вас заблокирован rutor или вдруг Вы не можете на него зайти, то Вы без труда сможете скачать бесплатно и без рекламы последние новинки кино, игр, сериалов и прочего у нас, на Rutor.in. Не нужно использовать прокси, чтобы зайти на рутор, достаточно воспользоваться нашим ресурсом. Все новые фильмы, игры, сериалы, книги и музыка за 2013 и 2014 годы через торрент бесплатно. Скачивайте фильмы в хорошем качестве, игры для пк, xbox, playstation без регистрации. У нас вы найдете новые Зарубежные сериалы и Русские сериалы 2013, 2014, 2015 годов. Оставайтесь с нами, качайте любимые фильмы, игры, сериалы, книги и музыку.