img image001 image001 image001 image001 image001 image001 image001 image001 image001 image001 image001 image001 image001 image001 image001

Planets Sun Sun Sun
Статистика раздачи
Автор: Снежана | Размер: 12.86 ГБ | Добавлен: 25 июл 2013
Раздают: 75    Качают: 92
Скачать торрент
Скачать торрент
Описание торрента

СообщениеДобавлено: 25 июл 2013 

#77

Информация о фильме
Оригинальное название: Краплёный
Год выпуска: 2012
Жанр: Криминал
Выпущено: Россия, Про-Синема продакшн
Режиссер: Ярослав Мочалов
В ролях: Валерий Золотухин, Андрей Феськов, Вячеслав Крикунов, Яна Гладких, Дарья Мороз, Павел Баршак, Владимир Зайцев, Игорь Бочкин, Алексей Гуськов, Владимир Капустин, Алексей Ошурков

О фильме: Дружная команда молодых талантливых учёных разрабатывают идею, которая может в корне перевернуть принципы индивидуальной защиты силовых структур и армии. Они живут полнокровной жизнью в своём любимом деле, в любви к девушкам, в настоящей мужской дружбе и выручке. Но непредвиденная ситуация, подставившая под удар одного из них, заставляет пересмотреть привычные человеческие принципы. И в этой обстановке начинают работать более приземлённые, но в чём-то более справедливые "блатные" понятия. Лишь они, и сила духа помогут интеллигентным героям выбраться из скользкой ямы интриг, коррупции и обычного человеческого предательства.



Файл
Качество: DVDRip (AVC)
Видео: MPEG-4 AVC, ~ 1550 Кбит/с, 688x544@980x544
Аудио: АС3, 2 ch, 96 Кбит/с
Размер: 12.86 ГБ
Продолжительность: 24 x ~ 00:46:00
Язык: Русский

Семпл

Общее
Уникальный идентификатор : 181759139956166413306772051677877164947 (0x88BD897AD92538B3899FF08EDBC4DB93)
Полное имя : D:Mои раздачиKraplenyi.2012.DVDRip.(AVC)_kasprKraplenyi.(01.seriya).mkv
Формат : Matroska
Версия формата : Version 2
Размер файла : 549 Мбайт
Продолжительность : 46 м.
Общий поток : 1665 Кбит/сек
Дата кодирования : UTC 2013-04-09 17:52:47
Программа кодирования : mkvmerge v3.3.0 ('Language') built on Mar 24 2010 14:59:24
Библиотека кодирования : libebml v0.8.0 + libmatroska v0.9.0

Видео
Идентификатор : 1
Формат : AVC
Формат/Информация : Advanced Video Codec
Профиль формата : High@L4.1
Параметр CABAC формата : Да
Параметр ReFrames формата : 8 кадров
Идентификатор кодека : V_MPEG4/ISO/AVC
Продолжительность : 46 м.
Битрейт : 1566 Кбит/сек
Ширина : 688 пикселей
Высота : 544 пикселя
Соотношение сторон : 16:9
Соотношение сторон в оригинале : 16:9
Режим частоты кадров : Постоянный
Частота кадров : 25,000 кадров/сек
Цветовое пространство : YUV
Субдискретизация насыщенности : 4:2:0
Битовая глубина : 8 бит
Тип развёртки : Прогрессивная
Бит/(Пиксели*Кадры) : 0.167
Размер потока : 506 Мбайт (92%)
Библиотека кодирования : x264 core 92 r1510 33d382a
Настройки программы : cabac=1 / ref=8 / deblock=1:-3:-3 / analyse=0x3:0x133 / me=umh / subme=9 / psy=1 / psy_rd=0.00:0.00 / mixed_ref=0 / me_range=32 / chroma_me=1 / trellis=2 / 8x8dct=1 / cqm=0 / deadzone=21,11 / fast_pskip=0 / chroma_qp_offset=0 / threads=12 / sliced_threads=0 / nr=0 / decimate=0 / interlaced=0 / constrained_intra=0 / bframes=5 / b_pyramid=0 / b_adapt=1 / b_bias=0 / direct=3 / wpredb=1 / wpredp=2 / keyint=250 / keyint_min=25 / scenecut=40 / intra_refresh=0 / rc=2pass / mbtree=0 / bitrate=1566 / ratetol=1.0 / qcomp=0.60 / qpmin=10 / qpmax=51 / qpstep=4 / cplxblur=20.0 / qblur=0.5 / ip_ratio=1.40 / pb_ratio=1.30 / aq=0
Default : Да
Forced : Нет

Аудио
Идентификатор : 2
Формат : AC-3
Формат/Информация : Audio Coding 3
Расширение режима : CM (complete main)
Параметр Endianness формата : Big
Идентификатор кодека : A_AC3
Продолжительность : 46 м.
Вид битрейта : Постоянный
Битрейт : 96,0 Кбит/сек
Каналы : 2 канала
Расположение каналов : Front: L R
Частота : 48,0 КГц
Битовая глубина : 16 бит
Метод сжатия : С потерями
Размер потока : 31,6 Мбайт (6%)
Default : Да
Forced : Нет




Релиз:



   Похожие торренты   Торрент   Размер 
В этой теме нет новых непрочитанных сообщений. Краплёный [01-24 из 24] (2012) DVDRip от Youtracker

322 | 89

8.78 ГБ

В этой теме нет новых непрочитанных сообщений. Краплёный [01-24 из 24] (2012) DVDRip от MediaClub | КПК

296 | 230

5.19 ГБ

В этой теме нет новых непрочитанных сообщений. Краплёный [01-24 из 24] (2012) DVDRip от Generalfilm

486 | 33

10.86 ГБ

В этой теме нет новых непрочитанных сообщений. Краплёный [01-24 из 24] (2012) DVDRip от Generalfilm | КПК

40 | 106

4.13 ГБ

В этой теме нет новых непрочитанных сообщений. Краплёный [01-24 из 24] (2012) WEB-DLRip-AVC от MediaClub

145 | 92

15.51 ГБ

В этой теме нет новых непрочитанных сообщений. Краплёный [01-24 из 24] (2012) 2хDVD9 от Youtracker | лицензия

9 | 8

15.74 ГБ

В этой теме нет новых непрочитанных сообщений. Силовой экстрим / Arnold Classic 2012 - Bikini International (2012) DVDRip

27 | 15

1.17 ГБ




Вы не можете начинать темы
Вы не можете отвечать на сообщения
Вы не можете редактировать свои сообщения
Вы не можете удалять свои сообщения
Вы не можете добавлять вложения

Перейти:  
Для Мосгорсуда, Роскомнадзора и рекламодателей: mosgorsud-torrent[собачка]yandex.ru
 Вход
ppkBB3cker v.2 © 2008-2014 @ PPK
[ Time : 0.275s | 15 Queries | GZIP : Off ]

Торрент трекер RUTOR.IN, Не можете зайти на rutor.org? Какой новый адрес рутор? Какое зеркало рутор? Не работает rutor.org и зеркала? Тогда наш торрент специально для вас. Rutor.in неофициальное зеркало rutor. В случае если у Вас заблокирован rutor или вдруг Вы не можете на него зайти, то Вы без труда сможете скачать бесплатно и без рекламы последние новинки кино, игр, сериалов и прочего у нас, на Rutor.in. Не нужно использовать прокси, чтобы зайти на рутор, достаточно воспользоваться нашим ресурсом. Все новые фильмы, игры, сериалы, книги и музыка за 2013 и 2014 годы через торрент бесплатно. Скачивайте фильмы в хорошем качестве, игры для пк, xbox, playstation без регистрации. У нас вы найдете новые Зарубежные сериалы и Русские сериалы 2013, 2014, 2015 годов. Оставайтесь с нами, качайте любимые фильмы, игры, сериалы, книги и музыку.