img image001 image001 image001 image001 image001 image001 image001 image001 image001 image001 image001 image001 image001 image001 image001

Planets Sun Sun Sun
Статистика раздачи
Автор: Снежана | Размер: 3.51 ГБ | Добавлен: 26 июл 2013
Раздают: 28    Качают: 16
Скачать торрент
Скачать торрент
Описание торрента

СообщениеДобавлено: 26 июл 2013 

#77

Информация о фильме
Название: Тайны Смолвиля
Оригинальное название: Smallville
Год выхода: 2003
Жанр: Фантастика
Режиссер: Джеймс Маршалл, Грег Биман, Майк Рол и др.
В ролях: Том Уэллинг, Майкл Розенбаум, Кристин Кройк, Сэм Джонс III, Эллисон Мэк, Джон Гловер, Аннетт О’Тул, Джон Шнайдер, Эрика Дюранс, Джастин Хартли и др.

О фильме:
Под действием красного криптонита Кларк грабит банки в Метрополисе. Джонатан совершает сделку с Джор-Элом и получает силу подобную силе Кларка, чтобы вернуть его домой, пообещав отправить его потом Джор-Элу. Лана собирается уехать в Париж, чтобы изменить свою жизнь, хотя все ещё любит Кларка. Пит уезжает, объясняя это тем, что ему слишком сложно и опасно хранить тайну Кларка. Лайонела Лутора заключают в тюрьму за убийство своих родителей, Кларк узнает что Лекс всё ещё хранит на него архив и перестает быть ему другом. Из-за мести Лайонел травит Лекса и взрывает дом Хлои.

Из стен пещеры выходит девушка с Криптона, обладающая умениями большими, чем Кларк, и зовёт его к Джор-Элу, говоря, что самые близкие его предадут. Кларк соглашается, когда узнает, что приемные родители его предали Джор-Элу. Джонатан впадает в кому, а Кларк в глубокой депрессии направляется к Джор-Элу.



Страна: США
Продолжительность: 22 x ~00:44:00
Перевод: Профессиональный (многоголосый, закадровый) [СТС]

Файл
Формат: MP4
Качество: WEB-DLRip | КПК
Видео: MPEG-4 AVC (x264), 640x360, ~400 kbps, 23.976 fps
Аудио: AAC LC, 48.0 KHz, 2 ch, 128 Kbps
Субтитры: Нет

Семпл


Format : MPEG-4
Format profile : Base Media
Codec ID : isom
File size : 164 MiB
Duration : 43mn 7s
Overall bit rate mode : Variable
Overall bit rate : 531 Kbps
Encoded date : UTC 2013-04-07 07:25:29
Tagged date : UTC 2013-04-07 07:25:29
Video #1
ID : 1
Format : AVC
Format/Info : Advanced Video Codec
Format profile : Baseline@L4.1
Format settings, CABAC : No
Format settings, ReFrames : 6 frames
Codec ID : avc1
Codec ID/Info : Advanced Video Coding
Duration : 43mn 7s
Bit rate : 400 Kbps
Maximum bit rate : 2 541 Kbps
Width : 640 pixels
Height : 360 pixels
Display aspect ratio : 16:9
Frame rate mode : Constant
Frame rate : 23.976 fps
Color space : YUV
Chroma subsampling : 4:2:0
Bit depth : 8 bits
Scan type : Progressive
Bits/(Pixel*Frame) : 0.072
Stream size : 123 MiB (75%)
Writing library : x264 core 119 r2106 07efeb4
Encoding settings : cabac=0 / ref=6 / deblock=1:-1:-1 / analyse=0x1:0x111 / me=umh / subme=7 / psy=1 / psy_rd=1.00:0.00 / mixed_ref=0 / me_range=16 / chroma_me=1 / trellis=1 / 8x8dct=0 / cqm=0 / deadzone=21,11 / fast_pskip=0 / chroma_qp_offset=-2 / threads=3 / sliced_threads=0 / nr=0 / decimate=1 / interlaced=0 / bluray_compat=0 / constrained_intra=0 / bframes=0 / weightp=0 / keyint=250 / keyint_min=23 / scenecut=40 / intra_refresh=0 / rc_lookahead=60 / rc=2pass / mbtree=1 / bitrate=400 / ratetol=1.0 / qcomp=0.60 / qpmin=0 / qpmax=69 / qpstep=4 / cplxblur=20.0 / qblur=0.5 / ip_ratio=1.40 / aq=1:1.00
Encoded date : UTC 2013-04-07 07:25:29
Tagged date : UTC 2013-04-07 07:25:40
Audio #2
ID : 2
Format : AAC
Format/Info : Advanced Audio Codec
Format profile : LC
Codec ID : 40
Duration : 43mn 7s
Bit rate mode : Variable
Bit rate : 128 Kbps
Maximum bit rate : 145 Kbps
Channel(s) : 2 channels
Channel positions : Front: L R
Sampling rate : 48.0 KHz
Compression mode : Lossy
Stream size : 39.4 MiB (24%)
Encoded date : UTC 2013-04-07 07:25:38
Tagged date : UTC 2013-04-07 07:25:40

Релиз от:



   Похожие торренты   Торрент   Размер 
В этой теме нет новых непрочитанных сообщений. Тайны Смолвиля / Smallville [S04] (2003) WEB-DLRip | КПК от Generalfilm

68 | 30

3.52 ГБ

В этой теме нет новых непрочитанных сообщений. Тайны Смолвиля / Smallville [S03] (2003) WEB-DLRip-AVC

1 | 5

17.03 ГБ

В этой теме нет новых непрочитанных сообщений. Тайны Смолвиля / Smallville [S02] (2002) WEB-DLRip | КПК от Generalfilm

46 | 36

3.68 ГБ

В этой теме нет новых непрочитанных сообщений. Тайны Смолвиля / Smallville [S01] (2001) WEB-DLRip | КПК от Generalfilm

66 | 28

3.43 ГБ

В этой теме нет новых непрочитанных сообщений. Тайны Смолвиля / Smallville [S02] (2002-2003) WEB-DL 720p | СТС

92 | 70

30.76 ГБ

В этой теме нет новых непрочитанных сообщений. Тайны Смолвиля / Smallville [S03] (2003-2004) WEB-DL 720p | СТС

95 | 41

29.42 ГБ

В этой теме нет новых непрочитанных сообщений. Тайны смолвиля (2 сезон) / Smallville (Season 2) (2003) DVDRip

53 | 26

7.89 ГБ




Вы не можете начинать темы
Вы не можете отвечать на сообщения
Вы не можете редактировать свои сообщения
Вы не можете удалять свои сообщения
Вы не можете добавлять вложения

Перейти:  
Для Мосгорсуда, Роскомнадзора и рекламодателей: mosgorsud-torrent[собачка]yandex.ru
 Вход
ppkBB3cker v.2 © 2008-2014 @ PPK
[ Time : 0.092s | 14 Queries | GZIP : Off ]

Торрент трекер RUTOR.IN, Не можете зайти на rutor.org? Какой новый адрес рутор? Какое зеркало рутор? Не работает rutor.org и зеркала? Тогда наш торрент специально для вас. Rutor.in неофициальное зеркало rutor. В случае если у Вас заблокирован rutor или вдруг Вы не можете на него зайти, то Вы без труда сможете скачать бесплатно и без рекламы последние новинки кино, игр, сериалов и прочего у нас, на Rutor.in. Не нужно использовать прокси, чтобы зайти на рутор, достаточно воспользоваться нашим ресурсом. Все новые фильмы, игры, сериалы, книги и музыка за 2013 и 2014 годы через торрент бесплатно. Скачивайте фильмы в хорошем качестве, игры для пк, xbox, playstation без регистрации. У нас вы найдете новые Зарубежные сериалы и Русские сериалы 2013, 2014, 2015 годов. Оставайтесь с нами, качайте любимые фильмы, игры, сериалы, книги и музыку.