img image001 image001 image001 image001 image001 image001 image001 image001 image001 image001 image001 image001 image001 image001 image001

Planets Sun Sun Sun
Статистика раздачи
Автор: Снежана | Размер: 5.01 ГБ | Добавлен: 25 июл 2013
Раздают: 3    Качают: 2
Скачать торрент
Скачать торрент
Описание торрента

СообщениеДобавлено: 25 июл 2013 

#77

Год выпуска: 2012
Страна: Канада
Жанр: драма, криминал
Продолжительность: ~00:43:00
Перевод: Любительский (многоголосый закадровый) - ViruseProject
Русские субтитры: есть
Автор перевода: Notabenoid
Режиссёр: Jerry Ciccoritti / Джерри Чиккоритти

В ролях: Эми Прайс-Фрэнсис (Мыслить как преступник, Блудливая Калифорния, 24 часа, Анатомия страсти, Менталист), Алан Ван Спрэнг, Тони Нарди, Гэбриел Хоган, Россиф Сазерленд, Карен Робинсон, Аарон Пул, Зои Магфорд, Сюзанн Кой, Ромина Д’Уго и др.

Описание: Когда у начальника отдела по Особо важным делам, случается нервный срыв прямо перед телекамерами, отдел поручают возглавить Джессике Кинг. Пережив 8 лет работы в отделе по расследованию убийств, два развода, несколько ножевых ранений, она готова расследовать самые громкие преступления Торонто, не останавливаясь ни перед чем, кроме может быть распродажи обуви.


Релиз:

скачать СЕМПЛ с multi-up
http://www.youtube.com/watch?v=xDUSbGmZLRw&feature - Смотреть семпл озвучки на youtube

Качество: HDTVRip
Формат: AVI
Видео кодек: XviD
Аудио кодек: MP3
Видео: 624x352 (1.77:1), 23.976 fps, XviD MPEG-4 ~967 kbps avg, 0.18 bit/pixel
Аудио (RU): 48 kHz, MPEG Layer 3, 2 ch, ~128.00 kbps avg
Аудио (ENG): 48 kHz, MPEG Layer 3, 2 ch, ~128.00 kbps avg

D:ОЗВУЧКАГОТОВОЕKing.S02King.S02E01.ViruseProject.avi
General
Complete name : D:ОЗВУЧКАГОТОВОЕKing.S02King.S02E01.ViruseProject.avi
Format : AVI
Format/Info : Audio Video Interleave
File size : 391 MiB
Duration : 44mn 1s
Overall bit rate : 1 242 Kbps
Writing application : VirtualDubMod 1.5.10.2 (build 2540/release)
Writing library : VirtualDubMod build 2540/release
Video #0
ID : 0
Format : MPEG-4 Visual
Format profile : Advanced Simple@L5
Format settings, BVOP : 2
Format settings, QPel : No
Format settings, GMC : No warppoints
Format settings, Matrix : Default (H.263)
Codec ID : XVID
Codec ID/Hint : XviD
Duration : 44mn 1s
Bit rate : 969 Kbps
Width : 624 pixels
Height : 352 pixels
Display aspect ratio : 16:9
Frame rate : 23.976 fps
Color space : YUV
Chroma subsampling : 4:2:0
Bit depth : 8 bits
Scan type : Progressive
Compression mode : Lossy
Bits/(Pixel*Frame) : 0.184
Stream size : 305 MiB (78%)
Writing library : XviD 64
Audio #1
ID : 1
Format : MPEG Audio
Format version : Version 1
Format profile : Layer 3
Codec ID : 55
Codec ID/Hint : MP3
Duration : 44mn 1s
Bit rate mode : Constant
Bit rate : 128 Kbps
Channel(s) : 2 channels
Sampling rate : 48.0 KHz
Compression mode : Lossy
Stream size : 40.3 MiB (10%)
Alignment : Aligned on interleaves
Interleave, duration : 42 ms (1.00 video frame)
Interleave, preload duration : 504 ms
Audio #2
ID : 2
Format : MPEG Audio
Format version : Version 1
Format profile : Layer 3
Mode : Joint stereo
Mode extension : MS Stereo
Codec ID : 55
Codec ID/Hint : MP3
Duration : 44mn 1s
Bit rate mode : Variable
Bit rate : 128 Kbps
Channel(s) : 2 channels
Sampling rate : 48.0 KHz
Compression mode : Lossy
Stream size : 40.2 MiB (10%)
Alignment : Aligned on interleaves
Interleave, duration : 24 ms (0.58 video frame)
Interleave, preload duration : 577 ms








   Похожие торренты   Торрент   Размер 
В этой теме нет новых непрочитанных сообщений. Кинг / King [S01] (2011) HDTVRip от viruse

1 | 5

2.93 ГБ

В этой теме нет новых непрочитанных сообщений. Кинг и Максвелл / King & Maxwell [01x01-08] (2013) HDTVRip | Sub

0 | 5

2.71 ГБ

В этой теме нет новых непрочитанных сообщений. Кинг и Максвелл / King & Maxwell [01x01-06] (2013) HDTVRip 720p

0 | 2

7.55 ГБ

В этой теме нет новых непрочитанных сообщений. Кинг Конг / King Kong (2005) HDTVRip от Deadmauvlad | D | Open Matte

57 | 7

2.17 ГБ

В этой теме нет новых непрочитанных сообщений. Кинг Конг / King Kong (2005) HDTVRip от Deadmauvlad | D | Open Matte

123 | 15

1.45 ГБ

В этой теме нет новых непрочитанных сообщений. Девять жизней Хлои Кинг / The Nine Lives of Chloe King [01x08] (2011) HDTVRip

0 | 2

361.17 МБ

В этой теме нет новых непрочитанных сообщений. Шаман Кинг / Shaman King [01-64 из 64] (2001-2002) HDTVRip 720p от SDIncorporation | JetiX

0 | 5

52.03 ГБ




Вы не можете начинать темы
Вы не можете отвечать на сообщения
Вы не можете редактировать свои сообщения
Вы не можете удалять свои сообщения
Вы не можете добавлять вложения

Перейти:  
Для Мосгорсуда, Роскомнадзора и рекламодателей: mosgorsud-torrent[собачка]yandex.ru
 Вход
ppkBB3cker v.2 © 2008-2014 @ PPK
[ Time : 0.038s | 15 Queries | GZIP : On ]

Торрент трекер RUTOR.IN, Не можете зайти на rutor.org? Какой новый адрес рутор? Какое зеркало рутор? Не работает rutor.org и зеркала? Тогда наш торрент специально для вас. Rutor.in неофициальное зеркало rutor. В случае если у Вас заблокирован rutor или вдруг Вы не можете на него зайти, то Вы без труда сможете скачать бесплатно и без рекламы последние новинки кино, игр, сериалов и прочего у нас, на Rutor.in. Не нужно использовать прокси, чтобы зайти на рутор, достаточно воспользоваться нашим ресурсом. Все новые фильмы, игры, сериалы, книги и музыка за 2013 и 2014 годы через торрент бесплатно. Скачивайте фильмы в хорошем качестве, игры для пк, xbox, playstation без регистрации. У нас вы найдете новые Зарубежные сериалы и Русские сериалы 2013, 2014, 2015 годов. Оставайтесь с нами, качайте любимые фильмы, игры, сериалы, книги и музыку.