img image001 image001 image001 image001 image001 image001 image001 image001 image001 image001 image001 image001 image001 image001 image001

Planets Sun Sun Sun
Статистика раздачи
Автор: Снежана | Размер: 4.42 ГБ | Добавлен: 25 июл 2013
Раздают: 4    Качают: 2
Скачать торрент
Скачать торрент
Описание торрента

СообщениеДобавлено: 25 июл 2013 

#77


Спартак: Война проклятых / Spartacus: War of the Damned

Год выпуска: 2013
Страна: США / Starz
Жанр: боевик, драма, приключения, биография, история
Продолжительность: ~ 50 мин

Перевод: Отсутствует
Перевод: субтитры
Русские субтитры: есть (notabenoid), английские

Режиссёр: Майкл Херст

В ролях: Лиам МакИнтайр, Ману Беннет, Дастин Клер, Дэниэл Фьюрриджел,
Тодд Ласанс, Саймон Меррелс, Синтия Аддай-Робинсон, Эллен Холлман и др...

Описание: К восстанию Спартака присоединились тысячи. Вместе с Криксом и
Ганником он побеждает одного римского командира за другим. Отчаявшись, Рим
обращается за помощью к богатому, амбициозному Марку Крассу и молодому Юлию
Цезарю.

01. Враги Рима / Enemies of Rome
02. Волки у ворот / Wolves at the Gate
03. Люди чести / Men of Honor
04. Децимация / Decimation
05. Братья по крови / Blood Brothers
06. Военные трофеи / Spoils of War (эфир 8.03)
07. Непристойная смерть / Mors Idecepta (эфир 15.03)
08. Пути расходятся / Separate Paths (эфир 22.03)
09. Мёртвые и умирающие / The Dead and the Dying (эфир 5.04)
10. Победа / Victory / (эфир 12.04)

Качество: HDTVRip
Формат: AVI
Видео кодек: XviD
Аудио кодек: MP3
Видео: 624x352 (1.77:1), 23.976 fps, 970 kbps avg, 0.18 bit/pixel
Аудио: 48 kHz, 2 ch, 128 kbps


Общее
Полное имя : I:Spartacus.War of the Damned (sub)Spartacus.S03E01.HDTVRip.avi
Формат : AVI
Формат/Информация : Audio Video Interleave
Размер файла : 401 Мбайт
Продолжительность : 50 м.
Общий поток : 1104 Кбит/сек
Программа кодирования : VirtualDubMod 1.5.10.3 | www.virtualdub-fr.org || (build 2550/release)
Библиотека кодирования : VirtualDubMod build 2550/release

Видео
Идентификатор : 0
Формат : MPEG-4 Visual
Профиль формата : Advanced Simple@L5
Параметр BVOP формата : 1
Параметр QPel формата : Нет
Параметр GMC формата : Без точки перехода
Параметр матрицы формата : Выборочная
Идентификатор кодека : XVID
Идентификатор кодека/Подсказка : XviD
Продолжительность : 50 м.
Битрейт : 967 Кбит/сек
Ширина : 624 пикселя
Высота : 352 пикселя
Соотношение сторон : 16:9
Частота кадров : 23,976 кадра/сек
Цветовое пространство : YUV
Субдискретизация насыщенности : 4:2:0
Битовая глубина : 8 бит
Тип развёртки : Прогрессивная
Метод сжатия : С потерями
Бит/(Пиксели*Кадры) : 0.184
Размер потока : 351 Мбайт (88%)
Библиотека кодирования : XviD 63

Аудио
Идентификатор : 1
Формат : MPEG Audio
Версия формата : Version 1
Профиль формата : Layer 3
Режим : Joint stereo
Расширение режима : MS Stereo
Идентификатор кодека : 55
Идентификатор кодека/Подсказка : MP3
Продолжительность : 50 м.
Вид битрейта : Постоянный
Битрейт : 128 Кбит/сек
Каналы : 2 канала
Частота : 48,0 КГц
Метод сжатия : С потерями
Размер потока : 46,5 Мбайт (12%)
Выравнивание : Соединение по промежуткам
Продолжительность промежутка : 42 мс. (1,00 видеокадр)
Время предзагрузки промежутка : 504 мс.
Внимание! Раздача ведётся путём добавления новых серий; при каждом добавлении создаётся новый торрент. Чтобы начать докачку новой серии, пользователям необходимо сделать следующее:
(1) остановить скачивание,
(2) удалить старый торрент у себя из клиента (старые серии удалять не надо),
(3) скачать новый торрент и запустить его у себя в клиенте вместо старого, при этом указать клиенту путь в старую папку куда и должно происходить скачивание новых серий.

Ваш клиент при этом должен произвести хеширование (проверку) старой папки (если не производит сам - помогите ему сделать это), и будет докачивать только те серии которых у вас ещё нет. Старые серии при этом не удаляются, а продолжают раздаваться!

Eсли вы уже удалили старые серии, то предотвратить повторную закачку старых серий можно, отжав галочку в соответствующих местах при запуске нового торрента. По возможности, желательно не удалять старые серии как можно дольше чтобы релизёр не столько продолжал раздавать старые серии, а смог сконцентрироваться на новых.



   Похожие торренты   Торрент   Размер 
В этой теме нет новых непрочитанных сообщений. Спартак: Война проклятых / Spartacus: War of the Damned [03х01-09 из 10] (2013) HDTVRip | Jaskier

1 | 2

9.71 ГБ

В этой теме нет новых непрочитанных сообщений. Спартак: Война проклятых / Spartacus: War of the Damned [03х01-10 из 10] (2013) HDTVRip 720p | Sub

4 | 5

14.58 ГБ

В этой теме нет новых непрочитанных сообщений. Спартак: Война проклятых / Spartacus: War of the Damned [03х01-09] (2013) HDTVRip 720p | P

0 | 4

14.17 ГБ

В этой теме нет новых непрочитанных сообщений. Спартак: Война проклятых / Spartacus: War of the Damned [03х01] (2013) HDTVRip-AVC от Stalker oK | LostFilm

4 | 9

570.22 МБ

В этой теме нет новых непрочитанных сообщений. Спартак: Война проклятых / Spartacus: War of the Damned [03х01-09] (2013) HDTV 1080i | LostFilm

13 | 14

40.82 ГБ

В этой теме нет новых непрочитанных сообщений. Спартак: Война проклятых / Spartacus: War of the Damned [S03] (2013) HDTVRip | КПК

30 | 10

3.13 ГБ

В этой теме нет новых непрочитанных сообщений. Спартак: Война проклятых / Spartacus: War of the Damned [S03] (2013) HDTVRip | LostFilm

588 | 46

6.84 ГБ




Вы не можете начинать темы
Вы не можете отвечать на сообщения
Вы не можете редактировать свои сообщения
Вы не можете удалять свои сообщения
Вы не можете добавлять вложения

Перейти:  
Для Мосгорсуда, Роскомнадзора и рекламодателей: mosgorsud-torrent[собачка]yandex.ru
 Вход
ppkBB3cker v.2 © 2008-2014 @ PPK
[ Time : 0.055s | 15 Queries | GZIP : Off ]

Торрент трекер RUTOR.IN, Не можете зайти на rutor.org? Какой новый адрес рутор? Какое зеркало рутор? Не работает rutor.org и зеркала? Тогда наш торрент специально для вас. Rutor.in неофициальное зеркало rutor. В случае если у Вас заблокирован rutor или вдруг Вы не можете на него зайти, то Вы без труда сможете скачать бесплатно и без рекламы последние новинки кино, игр, сериалов и прочего у нас, на Rutor.in. Не нужно использовать прокси, чтобы зайти на рутор, достаточно воспользоваться нашим ресурсом. Все новые фильмы, игры, сериалы, книги и музыка за 2013 и 2014 годы через торрент бесплатно. Скачивайте фильмы в хорошем качестве, игры для пк, xbox, playstation без регистрации. У нас вы найдете новые Зарубежные сериалы и Русские сериалы 2013, 2014, 2015 годов. Оставайтесь с нами, качайте любимые фильмы, игры, сериалы, книги и музыку.
cron