img image001 image001 image001 image001 image001 image001 image001 image001 image001 image001 image001 image001 image001 image001 image001

Planets Sun Sun Sun
Статистика раздачи
Автор: Снежана | Размер: 13.06 ГБ | Добавлен: 25 июл 2013
Раздают: 346    Качают: 17
Скачать торрент
Скачать торрент
Описание торрента

СообщениеДобавлено: 25 июл 2013 

#77
Информация о фильме
Название: Склиф / Склифосовский
Год выпуска: 2013
Производство: кинокомпания "Русское"
Жанр: драма, мелодрама
Продолжительность: 24х ~ 00:43:00
Субтитры: нет
Режиссёр: Юлия Краснова
В ролях: Максим Аверин, Ольга Красько, Марина Могилевская, Дмитрий Миллер, Ольга Павловец, Мария Куликова, Надежда Горелова, Владимир Жеребцов, Антон Эльдаров, Анна Якунина, Андрей Барило, Константин Юшкевич, Владимир Мельников, Ирина Баринова, Дмитрий Калистратов, Лаура Кеосаян, Владимир Довжик, Ксения Лаврова-Глинка и др.
Описание: Звезда больницы - блестящий хирург, ироничный циник и ловелас доктор Брагин - по-прежнему фанатично предан своей работе. Без его участия не обходится ни одна сложная операция. Он не привык отступать или пасовать перед трудностями. И всем известно, что даже в самых экстремальных ситуациях он никогда не теряет присутствия духа и не отходит от операционного стола, пока жизнь человека не окажется в безопасности.
Сэмпл
Качество: SATRip - AVC
Формат: MKV
Видео кодек: H.264
Аудио кодек: AC3
Видео: x264, 720 х 432**768 х 432 (16:9), 25,000 кадр/сек, ~ 1612 Кбит/сек, ~ 0.208 bit/pixel
Аудио: AC3, 48.0 KHz, 2 канала(ов), 192 kbs
Complete name : Склифосовский 2.01 серия.2013.SATRip-AVC.Metla111.mkv
Format : Matroska
Format version : Version 2
File size : 557 MiB
Duration : 42mn 59s
Overall bit rate : 1 813 Kbps
Encoded date : UTC 2013-04-02 08:59:24
Writing application : mkvmerge v5.8.0 ('No Sleep / Pillow') built on Sep 2 2012 15:37:04
Writing library : libebml v1.2.3 + libmatroska v1.3.0

Video
ID : 1
Format : AVC
Format/Info : Advanced Video Codec
Format profile : High@L3.1
Format settings, CABAC : Yes
Format settings, ReFrames : 10 frames
Codec ID : V_MPEG4/ISO/AVC
Duration : 42mn 59s
Bit rate : 1 619 Kbps
Width : 720 pixels
Height : 432 pixels
Display aspect ratio : 16:9
Frame rate mode : Constant
Frame rate : 25.000 fps
Color space : YUV
Chroma subsampling : 4:2:0
Bit depth : 8 bits
Scan type : Progressive
Bits/(Pixel*Frame) : 0.208
Stream size : 487 MiB (87%)
Writing library : x264 core 125 r2208 d9d2288
Encoding settings : cabac=1 / ref=10 / deblock=1:-3:-3 / analyse=0x3:0x113 / me=umh / subme=9 / psy=1 / psy_rd=1.00:0.20 / mixed_ref=1 / me_range=32 / chroma_me=1 / trellis=2 / 8x8dct=1 / cqm=0 / deadzone=21,11 / fast_pskip=0 / chroma_qp_offset=-3 / threads=12 / lookahead_threads=2 / sliced_threads=0 / nr=0 / decimate=0 / interlaced=0 / bluray_compat=0 / constrained_intra=0 / bframes=8 / b_pyramid=2 / b_adapt=2 / b_bias=0 / direct=3 / weightb=1 / open_gop=0 / weightp=2 / keyint=250 / keyint_min=25 / scenecut=40 / intra_refresh=0 / rc=2pass / mbtree=0 / bitrate=1619 / ratetol=1.0 / qcomp=0.70 / qpmin=0 / qpmax=69 / qpstep=4 / cplxblur=20.0 / qblur=0.5 / ip_ratio=1.40 / pb_ratio=1.30 / aq=1:1.00
Default : Yes
Forced : No
Color primaries : BT.601 PAL
Transfer characteristics : BT.470 System B, BT.470 System G
Matrix coefficients : BT.601

Audio
ID : 2
Format : AC-3
Format/Info : Audio Coding 3
Mode extension : CM (complete main)
Format settings, Endianness : Big
Codec ID : A_AC3
Duration : 42mn 59s
Bit rate mode : Constant
Bit rate : 192 Kbps
Channel(s) : 2 channels
Channel positions : Front: L R
Sampling rate : 48.0 KHz
Bit depth : 16 bits
Compression mode : Lossy
Stream size : 59.0 MiB (11%)
Default : Yes
Forced : No

raw [info]: 720x432p 16:15 @ 25/1 fps (cfr)
x264 [info]: using SAR=16/15
x264 [info]: using cpu capabilities: MMX2 SSE2Fast SSSE3 FastShuffle SSE4.2 AVX XOP FMA4 FMA3 SSEMisalign LZCNT BMI1 TBM
x264 [info]: profile High, level 3.1

x264 [info]: frame I:558 Avg QP:15.36 size: 52088
x264 [info]: frame P:14157 Avg QP:17.65 size: 19278
x264 [info]: frame B:49777 Avg QP:19.05 size: 4422
x264 [info]: consecutive B-frames: 1.6% 2.2% 10.5% 21.0% 22.9% 36.4% 3.9% 0.6% 0.9%
x264 [info]: mb I I16..4: 13.7% 62.3% 24.0%
x264 [info]: mb P I16..4: 1.1% 10.2% 1.9% P16..4: 34.8% 31.9% 19.4% 0.0% 0.0% skip: 0.6%
x264 [info]: mb B I16..4: 0.0% 0.4% 0.1% B16..8: 38.5% 11.9% 3.2% direct: 5.6% skip:40.3% L0:34.8% L1:43.5% BI:21.7%
x264 [info]: 8x8 transform intra:74.2% inter:44.8%
x264 [info]: direct mvs spatial:98.6% temporal:1.4%
x264 [info]: coded y,uvDC,uvAC intra: 97.6% 75.6% 51.3% inter: 28.3% 22.7% 6.9%
x264 [info]: i16 v,h,dc,p: 11% 10% 28% 51%
x264 [info]: i8 v,h,dc,ddl,ddr,vr,hd,vl,hu: 18% 12% 9% 7% 11% 12% 10% 11% 10%
x264 [info]: i4 v,h,dc,ddl,ddr,vr,hd,vl,hu: 17% 11% 3% 8% 14% 15% 11% 11% 10%
x264 [info]: i8c dc,h,v,p: 30% 27% 26% 16%
x264 [info]: Weighted P-Frames: Y:4.8% UV:2.4%
x264 [info]: ref P L0: 46.6% 14.1% 20.5% 4.0% 5.0% 2.4% 3.1% 1.2% 1.7% 1.1% 0.2% 0.0%
x264 [info]: ref B L0: 82.1% 10.4% 2.7% 1.7% 1.0% 0.9% 0.6% 0.3% 0.2%
x264 [info]: ref B L1: 96.2% 3.8%
x264 [info]: kb/s:1619.02




   Похожие торренты   Торрент   Размер 
В этой теме нет новых непрочитанных сообщений. Склифосовский / Склиф [S02] (2012) SATRip от КинозалSAT

270 | 93

12.89 ГБ

В этой теме нет новых непрочитанных сообщений. Склиф / Склифосовский [01-24 из 24] (2012) SATRip от Youtracker

63 | 19

17.5 ГБ

В этой теме нет новых непрочитанных сообщений. Склиф / Склифосовский [S02] (2013) WEBRip-AVC

86 | 25

14.67 ГБ

В этой теме нет новых непрочитанных сообщений. Склиф / Склифосовский [01-24 из 24] (2012) DVB

2 | 7

45.02 ГБ

В этой теме нет новых непрочитанных сообщений. Склифосовский (Склиф) [01 из 24] (2015) HDTVRip от Files-x

196 | 31

2.15 ГБ

В этой теме нет новых непрочитанных сообщений. Склиф / Склифосовский [01-24 из 24] (2012) DVDRip-AVC от Youtracker

15 | 9

17.43 ГБ

В этой теме нет новых непрочитанных сообщений. Склиф / Склифосовский [01-24 из 24] (2012) HDTVRip от Files-x

351 | 205

14.54 ГБ




Вы не можете начинать темы
Вы не можете отвечать на сообщения
Вы не можете редактировать свои сообщения
Вы не можете удалять свои сообщения
Вы не можете добавлять вложения

Перейти:  
Для Мосгорсуда, Роскомнадзора и рекламодателей: mosgorsud-torrent[собачка]yandex.ru
 Вход
ppkBB3cker v.2 © 2008-2014 @ PPK
[ Time : 0.041s | 16 Queries | GZIP : On ]

Торрент трекер RUTOR.IN, Не можете зайти на rutor.org? Какой новый адрес рутор? Какое зеркало рутор? Не работает rutor.org и зеркала? Тогда наш торрент специально для вас. Rutor.in неофициальное зеркало rutor. В случае если у Вас заблокирован rutor или вдруг Вы не можете на него зайти, то Вы без труда сможете скачать бесплатно и без рекламы последние новинки кино, игр, сериалов и прочего у нас, на Rutor.in. Не нужно использовать прокси, чтобы зайти на рутор, достаточно воспользоваться нашим ресурсом. Все новые фильмы, игры, сериалы, книги и музыка за 2013 и 2014 годы через торрент бесплатно. Скачивайте фильмы в хорошем качестве, игры для пк, xbox, playstation без регистрации. У нас вы найдете новые Зарубежные сериалы и Русские сериалы 2013, 2014, 2015 годов. Оставайтесь с нами, качайте любимые фильмы, игры, сериалы, книги и музыку.