img image001 image001 image001 image001 image001 image001 image001 image001 image001 image001 image001 image001 image001 image001 image001

Planets Sun Sun Sun
Статистика раздачи
Автор: Снежана | Размер: 9.5 ГБ | Добавлен: 25 июл 2013
Раздают: 9    Качают: 3
Скачать торрент
Скачать торрент
Описание торрента

СообщениеДобавлено: 25 июл 2013 

#77

Название: Обитель лжи
Оригинальное название: House of Lies
Год выпуска: 2013
Страна: США
Жанр: комедия
Продолжительность: 12 х ~ 00:29:00
Перевод: Профессиональный (двухголосый закадровый) - NewStudio
Субтитры: Нет
Режиссер: Стивен Хопкинс

В ролях: Дон Чидл ("Отель Руанда", "Желчел-2"), Кристен Белл ("Veronica Mars", "Heroes", "When in Rome"), Джош Лоусон ("Romantically Challenged", "Sea Patrol"), Доун Оливьери ("Heroes", "The vampire diaries"), Бен Швартц ("Undercovers", ''Parks & Recreation"), Глинн Турман (''In treatment","The wire")

Описание: Необычный и язвительный взгляд на очень успешного и беспощадного консультанта Марти (Чидл), который не брезгует никакими средствами, чтобы получить нужную для его клиентов информацию, а также о его команде, в том числе о выпускнице престижного университета, которая работает в фирме Марти (Белл).





Озвучка: Ирина Воронова, Константин Погодаев
Перевод: Александр Митраков (Opel)
Подготовка видео: Koss
Работа со звуком: Koss
Постер: Vortex

Качество: HDTV 720p
Формат: MKV
Видео: XviD, 2870 Кбит/с, 1280x714
Аудио: Русский / Английский: AC3, 192 kb/s, 2ch / AC3, 384 kb/s, 6ch

Добавлен 12-ая серия. Сезон полностью.

Формат : Matroska
Размер файла : 722 Мбайт
Продолжительность : 28 м.
Общий поток : 3516 Кбит/сек
Дата кодирования : UTC 2010-02-22 21:41:31
Программа кодирования : mkvmerge v5.9.0 ('On The Loose') built on Dec 9 2012 15:37:01
Библиотека кодирования : libebml v1.3.0 + libmatroska v1.4.0

Видео
Идентификатор : 1
Формат : AVC
Формат/Информация : Advanced Video Codec
Профиль формата : High@L4.1
Параметр CABAC формата : Да
Параметр ReFrames формата : 5 кадров
Параметры GOP формата : M=4, N=16
Идентификатор кодека : V_MPEG4/ISO/AVC
Продолжительность : 28 м.
Битрейт : 2870 Кбит/сек
Ширина : 1280 пикс.
Высота : 714 пикс.
Соотношение сторон : 16:9
Частота кадров : 23,976 кадр/сек
Цветовое пространство : YUV
Подвыборка цветности : 4:2:0
Битовая глубина : 8 бит
Тип развёртки : Прогрессивная
Бит/(Пиксели*Кадры) : 0.131
Размер потока : 590 Мбайт (82%)
Библиотека кодирования : x264 core 129 r2245 bc13772
Настройки программы : cabac=1 / ref=5 / deblock=1:-2:-2 / analyse=0x3:0x113 / me=umh / subme=8 / psy=1 / psy_rd=1.05:0.00 / mixed_ref=1 / me_range=16 / chroma_me=1 / trellis=1 / 8x8dct=1 / cqm=0 / deadzone=21,11 / fast_pskip=1 / chroma_qp_offset=-2 / threads=18 / lookahead_threads=3 / sliced_threads=0 / nr=0 / decimate=1 / interlaced=0 / bluray_compat=0 / constrained_intra=0 / bframes=3 / b_pyramid=2 / b_adapt=2 / b_bias=0 / direct=3 / weightb=1 / open_gop=0 / weightp=2 / keyint=250 / keyint_min=23 / scenecut=40 / intra_refresh=0 / rc_lookahead=50 / rc=crf / mbtree=1 / crf=19.0 / qcomp=0.60 / qpmin=0 / qpmax=69 / qpstep=4 / ip_ratio=1.40 / aq=1:0.70
Язык : English

Аудио #1
Идентификатор : 2
Формат : AC-3
Формат/Информация : Audio Coding 3
Расширение режима : CM (complete main)
Идентификатор кодека : A_AC3
Продолжительность : 28 м.
Вид битрейта : Постоянный
Битрейт : 192 Кбит/сек
Каналы : 2 канала
Расположение каналов : Front: L R
Частота : 48,0 КГц
Битовая глубина : 16 бит
Метод сжатия : С потерями
Размер потока : 39,4 Мбайт (5%)
Язык : Russian

Аудио #2
Идентификатор : 3
Формат : AC-3
Формат/Информация : Audio Coding 3
Расширение режима : CM (complete main)
Идентификатор кодека : A_AC3
Продолжительность : 28 м.
Вид битрейта : Постоянный
Битрейт : 384 Кбит/сек
Каналы : 6 каналов
Расположение каналов : Front: L C R, Side: L R, LFE
Частота : 48,0 КГц
Битовая глубина : 16 бит
Метод сжатия : С потерями
Размер потока : 78,9 Мбайт (11%)
Язык : English

01. Stochasticity
02. When Dinosaurs Ruled the Planet
03. Man-Date
04. Damonshildren.org
05. Sincerity Is an Easy Disguise in This Business
06. Family Values
07. The Runner Stumbles




Релиз от:



   Похожие торренты   Торрент   Размер 
В этой теме нет новых непрочитанных сообщений. Обитель лжи / House of Lies [s02] (2013) HDTV 720p NewStudio

23 | 43

9.5 ГБ

В этой теме нет новых непрочитанных сообщений. Обитель лжи / House of Lies [S01] (2012) HDTV 720p | NewStudio

12 | 3

9.38 ГБ

В этой теме нет новых непрочитанных сообщений. Обитель лжи / House of Lies [S02] (2013) HDTVRip | NewStudio

0 | 2

4.1 ГБ

В этой теме нет новых непрочитанных сообщений. Обитель лжи / House of Lies [S02] (2013) HDTVRip | NewStudio

38 | 7

4.1 ГБ

В этой теме нет новых непрочитанных сообщений. Обитель лжи / House of Lies [S01-02] (2012-2013) HDTVRip | NewStudio

1 | 2

8.26 ГБ

В этой теме нет новых непрочитанных сообщений. Обитель лжи / House of Lies [S05] (2016) HDTV 720p | Gears Media

26 | 17

6.86 ГБ

В этой теме нет новых непрочитанных сообщений. Обитель лжи / House of Lies [05x01-09 из 10] (2016) HDTV 720p | Gears Media

4 | 1

6.01 ГБ




Вы не можете начинать темы
Вы не можете отвечать на сообщения
Вы не можете редактировать свои сообщения
Вы не можете удалять свои сообщения
Вы не можете добавлять вложения

Перейти:  
Для Мосгорсуда, Роскомнадзора и рекламодателей: mosgorsud-torrent[собачка]yandex.ru
 Вход
ppkBB3cker v.2 © 2008-2014 @ PPK
[ Time : 4.758s | 15 Queries | GZIP : On ]

Торрент трекер RUTOR.IN, Не можете зайти на rutor.org? Какой новый адрес рутор? Какое зеркало рутор? Не работает rutor.org и зеркала? Тогда наш торрент специально для вас. Rutor.in неофициальное зеркало rutor. В случае если у Вас заблокирован rutor или вдруг Вы не можете на него зайти, то Вы без труда сможете скачать бесплатно и без рекламы последние новинки кино, игр, сериалов и прочего у нас, на Rutor.in. Не нужно использовать прокси, чтобы зайти на рутор, достаточно воспользоваться нашим ресурсом. Все новые фильмы, игры, сериалы, книги и музыка за 2013 и 2014 годы через торрент бесплатно. Скачивайте фильмы в хорошем качестве, игры для пк, xbox, playstation без регистрации. У нас вы найдете новые Зарубежные сериалы и Русские сериалы 2013, 2014, 2015 годов. Оставайтесь с нами, качайте любимые фильмы, игры, сериалы, книги и музыку.