img image001 image001 image001 image001 image001 image001 image001 image001 image001 image001 image001 image001 image001 image001 image001

Planets Sun Sun Sun
Статистика раздачи
Автор: Снежана | Размер: 10.49 ГБ | Добавлен: 25 июл 2013
Раздают: 0    Качают: 2
Скачать торрент
Скачать торрент
Описание торрента

СообщениеДобавлено: 25 июл 2013 

#77

Название: Город Хищниц
Оригинальное название: Cougar Town
Год выпуска: 2013
Страна: США
Жанр: комедия
Продолжительность: 15 х ~ 00:22:00
Перевод: Профессиональный (двухголосый закадровый) - NewStudio
Субтитры: нет
Режиссер: Билл Лоуренс, Кевин Бигель

В ролях: Кортни Кокс, Криста Миллер, Бизи Филиппс, Брайан Ван Холт, Джош Хопкинс, Иэн Гомес, Дэн Берд, Скот Фоли и др.

Описание: Сериал Cougar Town рассказывает о недавно разведенной 40-летней Джулс Кобб и ее сыне-подростке Трэвисе, живущих в небольшом городке в штате Флорида. Этот город можно охарактеризовать одним словом – Cougars. Это и название популярной футбольной команды местной школы, и … немалое количество разведенных женщин среднего возраста, ищущих парней помоложе, чтобы скрасить свой досуг. Джулс не хочет стать похожей на них, но после прошедшего развода и своих немолодых лет она хочет большего для своей личной жизни. С помощью лучшей подруги Элли и коллеги по работе Лори она пытается вспомнить, как же это – ходить на свидания и знакомиться с мужчинами.



Перевод: Фиона
Озвучка: Юлия Котурбаш, Артем Мирон
Работа со звуком: Cherry
Рип видео: koss

Качество: WEB-DL 720p
Формат: MKV
Видео: MPEG-4 AVC, ~ 4000 Кбит/с, 1280x720
Аудио rus: АС3, 2 ch, 192 Кбит/с
Аудио eng: АС3, 6 ch, 384 Кбит/с

Добавлена 14-ая и 15-ая серии. Сезон полностью.

01. Тоскливое воскресенье
02. I Need to Know
03. Between Two Worlds
04. I Should Have Known It
05. Настичь мечту / Runnin' Down a Dream
06. You and I Will Meet Again
07. Runnin Down a Dream
08. Make It Better
09. You Tell Me
10. Ты мне скажи / You Tell Me
11. Спасительная благодать / Saving Grace
12. Этот старый городок / This Old Town
13. Преступный умысел / The Criminal Mind
14. Не забывайся / Don't Fade on Me
15. С любовью - на край света / Have Love Will Travel
Формат : Matroska
Размер файла : 751 Мбайт
Продолжительность : 22 м.
Общий поток : 4694 Кбит/сек
Дата кодирования : UTC 2013-01-12 19:01:24
Программа кодирования : mkvmerge v2.9.9 ('Tutu') built on Nov 25 2009 21:13:32
Библиотека кодирования : libebml v0.7.9 + libmatroska v0.8.1

Видео
Идентификатор : 1
Формат : AVC
Формат/Информация : Advanced Video Codec
Профиль формата : High@L3.1
Параметр CABAC формата : Нет
Параметр ReFrames формата : 2 кадра
Идентификатор кодека : V_MPEG4/ISO/AVC
Продолжительность : 22 м.
Битрейт : 4025 Кбит/сек
Ширина : 1280 пикс.
Высота : 720 пикс.
Соотношение сторон : 16:9
Частота кадров : 23,976 кадр/сек
Цветовое пространство : YUV
Подвыборка цветности : 4:2:0
Битовая глубина : 8 бит
Тип развёртки : Прогрессивная
Бит/(Пиксели*Кадры) : 0.182
Размер потока : 644 Мбайт (86%)
Язык : English
Основные цвета : BT.709-5, BT.1361, IEC 61966-2-4, SMPTE RP177
Характеристики трансфера : BT.709-5, BT.1361
Коэффициенты матрицы : BT.709-5, BT.1361, IEC 61966-2-4 709, SMPTE RP177

Аудио #1
Идентификатор : 2
Формат : AC-3
Формат/Информация : Audio Coding 3
Расширение режима : CM (complete main)
Идентификатор кодека : A_AC3
Продолжительность : 22 м.
Вид битрейта : Постоянный
Битрейт : 192 Кбит/сек
Каналы : 2 канала
Расположение каналов : Front: L R
Частота : 48,0 КГц
Битовая глубина : 16 бит
Метод сжатия : С потерями
Размер потока : 30,7 Мбайт (4%)

Аудио #2
Идентификатор : 3
Формат : AC-3
Формат/Информация : Audio Coding 3
Расширение режима : CM (complete main)
Идентификатор кодека : A_AC3
Продолжительность : 22 м.
Вид битрейта : Постоянный
Битрейт : 384 Кбит/сек
Каналы : 6 каналов
Расположение каналов : Front: L C R, Side: L R, LFE
Частота : 48,0 КГц
Битовая глубина : 16 бит
Метод сжатия : С потерями
Размер потока : 61,5 Мбайт (8%)
Язык : English


Релиз от:



   Похожие торренты   Торрент   Размер 
В этой теме нет новых непрочитанных сообщений. Город Хищниц / Cougar Town [S03] (2012) WEB-DL 720p | NewStudio

0 | 2

10.64 ГБ

В этой теме нет новых непрочитанных сообщений. Город Хищниц / Cougar Town [S04] (2013) WEB-DLRip | NewStudio

15 | 2

4.39 ГБ

В этой теме нет новых непрочитанных сообщений. Город Хищниц / Cougar Town [06x01-03 из 13] (2015) WEB-DL 720p | NewStudio

32 | 36

2.2 ГБ

В этой теме нет новых непрочитанных сообщений. Город Хищниц / Cougar Town [06x01-07 из 13] (2015) WEB-DL 720p | NewStudio

54 | 53

5.01 ГБ

В этой теме нет новых непрочитанных сообщений. Город Хищниц / Cougar Town [06x01-06 из 13] (2015) WEB-DL 720p | NewStudio

9 | 35

4.3 ГБ

В этой теме нет новых непрочитанных сообщений. Город Хищниц / Cougar Town [06x01-02 из 13] (2015) WEB-DL 720p | NewStudio

4 | 3

1.49 ГБ

В этой теме нет новых непрочитанных сообщений. Город Хищниц / Cougar Town [S02] (2010-2011) WEB-DL 720p | NewStudio

0 | 2

15.43 ГБ




Вы не можете начинать темы
Вы не можете отвечать на сообщения
Вы не можете редактировать свои сообщения
Вы не можете удалять свои сообщения
Вы не можете добавлять вложения

Перейти:  
Для Мосгорсуда, Роскомнадзора и рекламодателей: mosgorsud-torrent[собачка]yandex.ru
 Вход
ppkBB3cker v.2 © 2008-2014 @ PPK
[ Time : 0.050s | 14 Queries | GZIP : On ]

Торрент трекер RUTOR.IN, Не можете зайти на rutor.org? Какой новый адрес рутор? Какое зеркало рутор? Не работает rutor.org и зеркала? Тогда наш торрент специально для вас. Rutor.in неофициальное зеркало rutor. В случае если у Вас заблокирован rutor или вдруг Вы не можете на него зайти, то Вы без труда сможете скачать бесплатно и без рекламы последние новинки кино, игр, сериалов и прочего у нас, на Rutor.in. Не нужно использовать прокси, чтобы зайти на рутор, достаточно воспользоваться нашим ресурсом. Все новые фильмы, игры, сериалы, книги и музыка за 2013 и 2014 годы через торрент бесплатно. Скачивайте фильмы в хорошем качестве, игры для пк, xbox, playstation без регистрации. У нас вы найдете новые Зарубежные сериалы и Русские сериалы 2013, 2014, 2015 годов. Оставайтесь с нами, качайте любимые фильмы, игры, сериалы, книги и музыку.