img image001 image001 image001 image001 image001 image001 image001 image001 image001 image001 image001 image001 image001 image001 image001 image001

Planets Sun Sun Sun
Статистика раздачи
Автор: Снежана | Размер: 16.14 ГБ | Добавлен: 25 июл 2013
Раздают: 15    Качают: 7
Скачать торрент
Скачать торрент
Описание торрента

СообщениеДобавлено: 25 июл 2013 

#77

«Some legends are written in blood.»



Название: Спартак: Война проклятых
Оригинальное название: Spartacus: War of the Damned
Год выпуска: 2013
Жанр: Историческая драма, Древний Рим, гладиаторы, боевик
Выпущено: США, Starz Media, Starz Productions
Продолжительность: 10 x ~ 00:51:00
Перевод: Профессиональный (многоголосый закадровый) студия Jaskier
Субтитры: Русские, английские

Режиссер: Марк Бисли

В ролях: Лиам МакИнтайр, Ману Беннетт, Ричард Нортон, Дастин Клер, Дэниэл Фьюрриджел, Синтия Аддай-Робинсон, Саймон Меррелс, Эллен Холлман, Дитч Дэвей, Пена Хема Тейлор

О фильме: К восстанию Спартака присоединились тысячи. Вместе с Криксом и Ганником он побеждает одного римского командира за другим. Отчаявшись, Рим обращается за помощью к богатому, амбициозному Марку Крассу и молодому Юлию Цезарю.

Автор: Dantenecto



Качество: HDTVRip 720p
Видео: MPEG-4 AVC, ~ 3100 Кбит/с, 1280x720
Аудио: Русский (АС3, 6 ch, 448 Кбит/с), английский (АС3, 6 ch, 384 Кбит/с)

Format : Matroska
File size : 1.43 GiB
Duration : 53mn 34s
Overall bit rate : 3 810 Kbps
Encoded date : UTC 2013-02-03 12:15:37
Writing application : mkvmerge v2.3.0 ('Freak U') built on Sep 8 2008 18:32:16
Writing library : libebml v0.7.7 + libmatroska v0.8.1

Video
ID : 1
Format : AVC
Format/Info : Advanced Video Codec
Format profile : High@L4.1
Format settings, CABAC : Yes
Format settings, ReFrames : 5 frames
Format settings, GOP : M=2, N=3
Codec ID : V_MPEG4/ISO/AVC
Duration : 53mn 34s
Bit rate : 2 902 Kbps
Width : 1 280 pixels
Height : 720 pixels
Display aspect ratio : 16:9
Frame rate : 23.976 fps
Color space : YUV
Chroma subsampling : 4:2:0
Bit depth : 8 bits
Scan type : Progressive
Bits/(Pixel*Frame) : 0.131
Stream size : 1.09 GiB (76%)
Writing library : x264 core 129 r2245 bc13772
Encoding settings : cabac=1 / ref=5 / deblock=1:0:0 / analyse=0x3:0x113 / me=umh / subme=8 / psy=1 / psy_rd=1.00:0.00 / mixed_ref=1 / me_range=16 / chroma_me=1 / trellis=1 / 8x8dct=1 / cqm=0 / deadzone=21,11 / fast_pskip=1 / chroma_qp_offset=-2 / threads=18 / lookahead_threads=3 / sliced_threads=0 / nr=0 / decimate=1 / interlaced=0 / bluray_compat=0 / constrained_intra=0 / bframes=3 / b_pyramid=2 / b_adapt=2 / b_bias=0 / direct=3 / weightb=1 / open_gop=0 / weightp=2 / keyint=250 / keyint_min=23 / scenecut=40 / intra_refresh=0 / rc_lookahead=50 / rc=crf / mbtree=1 / crf=18.0 / qcomp=0.60 / qpmin=0 / qpmax=69 / qpstep=4 / ip_ratio=1.40 / aq=1:1.00
Language : English
Matrix coefficients : BT.709-5, BT.1361, IEC 61966-2-4 709, SMPTE RP177

Audio #1
ID : 2
Format : AC-3
Format/Info : Audio Coding 3
Mode extension : CM (complete main)
Codec ID : A_AC3
Duration : 53mn 34s
Bit rate mode : Constant
Bit rate : 448 Kbps
Channel(s) : 6 channels
Channel positions : Front: L C R, Side: L R, LFE
Sampling rate : 48.0 KHz
Bit depth : 16 bits
Compression mode : Lossy
Stream size : 172 MiB (12%)
Language : Russian

Audio #2
ID : 3
Format : AC-3
Format/Info : Audio Coding 3
Mode extension : CM (complete main)
Codec ID : A_AC3
Duration : 53mn 34s
Bit rate mode : Constant
Bit rate : 384 Kbps
Channel(s) : 6 channels
Channel positions : Front: L C R, Side: L R, LFE
Sampling rate : 48.0 KHz
Bit depth : 16 bits
Compression mode : Lossy
Stream size : 147 MiB (10%)
Language : English
01. Враги Рима / Enemies of Rome
02. Волки у ворот / Wolves at the Gate
03. Люди чести / Men of Honor
04. Децимация / Decimation
05. Братья по крови / Blood Brothers
06. Военные трофеи / Spoils of War
07. Непристойная смерть / Mors Idecepta
08. Пути расходятся / Separate Paths
09. Мёртвые и умирающие / The Dead and the Dying
10. Победа / Victory
Сатурн, 2011 год

Победитель (1):
Лучшая телеактриса второго плана (Люси Лоулесс)

Номинации (1):
Лучший телесериал, созданный для кабельного телевидения




   Похожие торренты   Торрент   Размер 
В этой теме нет новых непрочитанных сообщений. Спартак: Война проклятых / Spartacus: War of the Damned [S03] (2013) BDRip 720p | РЕН-ТВ

118 | 70

20.29 ГБ

В этой теме нет новых непрочитанных сообщений. Спартак: Война проклятых / Spartacus: War of the Damned [03x01-04 из 10] (2013) BDRip 720p | РЕН-ТВ

11 | 14

8.12 ГБ

В этой теме нет новых непрочитанных сообщений. Спартак: Война проклятых / Spartacus: War of the Damned [S03] (2013) HDRip | РЕН-ТВ

150 | 42

8.66 ГБ

В этой теме нет новых непрочитанных сообщений. Спартак: Война проклятых / Spartacus: War of the Damned [03x01-04 из 10] (2013) HDRip | РЕН-ТВ

13 | 4

3.44 ГБ

В этой теме нет новых непрочитанных сообщений. Спартак: Война проклятых / Spartacus: War of the Damned [s03] (2013) HDRip от Scarabey | LostFilm

96 | 74

9.68 ГБ

В этой теме нет новых непрочитанных сообщений. Спартак: Война проклятых / Spartacus: War of the Damned [s03] (2013) HDRip от Scarabey | LostFilm

417 | 170

4.48 ГБ

В этой теме нет новых непрочитанных сообщений. Спартак / Spartacus [S01-04] (2010-2013) BDRip 720p | Рен ТВ

165 | 333

98.69 ГБ




Вы не можете начинать темы
Вы не можете отвечать на сообщения
Вы не можете редактировать свои сообщения
Вы не можете удалять свои сообщения
Вы не можете добавлять вложения

Перейти:  
 Вход
ppkBB3cker v.2 © 2008-2014 @ PPK
[ Time : 0.046s | 16 Queries | GZIP : Off ]

cron