img image001 image001 image001 image001 image001 image001 image001 image001 image001 image001 image001 image001 image001 image001 image001

Planets Sun Sun Sun
Статистика раздачи
Автор: Снежана | Размер: 7.62 ГБ | Добавлен: 25 июл 2013
Раздают: 0    Качают: 2
Скачать торрент
Скачать торрент
Описание торрента

СообщениеДобавлено: 25 июл 2013 

#77
Год выпуска: 2012
Производство: "Star Media"
Жанр: детектив
Продолжительность:14х ~ ~ 00:45:00
Субтитры: нет
Режиссёр: Максим Мехеда, Николай Михайлов, Владимир Самойлюк
В ролях: Вадим Андреев, Александр Яцко, Борис Хвошнянский, Михаил Хмуров, Сергей Стрельников, Василий Щипицын, Наталья Ткаченко, Валерия Ходос, Ольга Лукьяненко, Евгений Капорин, Денис Толяренко, Николай Козак, Артём Музыченко, Алексей Смолка, Дарья Егоркина, Майя Кузьмишина, Виктория Токманенко, Яна Соболевская, Никита Скоморохов, Максим Записочный, Андрей Исаенко, Инга Нагорная, Дмитрий Нежельский, Андрей Фединчик, Никита Чаевский, Ксения Вертинская, Галина Безрук, Алексей Крылов, Игорь Антонов, Даниил Дорошенко, Ольга Радчук, Сергей Калантай, Пётр Сова, Екатерина Варченко, Марк Дробот, Дарья Орехова
Описание: Уволившись из рядов милиции по выслуге лет, ветераны уголовного розыска Леонид Ковальский, Олег Семенов и Стас Романишин легко нашли себя на «гражданке». Леонид и Стас приглашены преподавателями в Академию права, Олег стал ответственным секретарем в Фонде ветеранов МВД. И хотя всем друзьям за 55, они находятся в прекрасной физической форме.
Честные без кавычек, с прямым характером, они не могут равнодушно воспринимать то, что происходит вокруг. Ведь уголовщина время от времени, тем или иным боком задевает интересы знакомых и друзей.
Доп. Информация: Спасибо kostik184 за предоставленный исходник!
Любая реклама ОТСУТСТВУЕТ!!!

Сэмпл
Качество: SATRip - AVC [Исходник DVB]
Формат: MKV
Видео кодек: H.264
Аудио кодек: AC3
Видео: x264, 716 х 434**764 х 434 (16:9), 25,000 кадр/сек, ~ 1506 Кбит/сек, ~ 0.194 bit/pixel
Аудио: AC3, 48.0 KHz, 2 канала(ов), 192 kbs

Video
ID : 1
Format : AVC
Format/Info : Advanced Video Codec
Format profile : High@L3.1
Format settings, CABAC : Yes
Format settings, ReFrames : 10 frames
Codec ID : V_MPEG4/ISO/AVC
Duration : 45mn 50s
Bit rate : 1 506 Kbps
Width : 716 pixels
Height : 434 pixels
Display aspect ratio : 16:9
Frame rate mode : Constant
Frame rate : 25.000 fps
Color space : YUV
Chroma subsampling : 4:2:0
Bit depth : 8 bits
Scan type : Progressive
Bits/(Pixel*Frame) : 0.194
Stream size : 483 MiB (87%)
Writing library : x264 core 125 r2208 d9d2288
Encoding settings : cabac=1 / ref=10 / deblock=1:-3:-3 / analyse=0x3:0x113 / me=umh / subme=9 / psy=1 / psy_rd=1.00:0.20 / mixed_ref=1 / me_range=32 / chroma_me=1 / trellis=2 / 8x8dct=1 / cqm=0 / deadzone=21,11 / fast_pskip=0 / chroma_qp_offset=-3 / threads=6 / lookahead_threads=1 / sliced_threads=0 / nr=0 / decimate=0 / interlaced=0 / bluray_compat=0 / constrained_intra=0 / bframes=8 / b_pyramid=2 / b_adapt=2 / b_bias=0 / direct=3 / weightb=1 / open_gop=0 / weightp=2 / keyint=250 / keyint_min=25 / scenecut=40 / intra_refresh=0 / rc=2pass / mbtree=0 / bitrate=1506 / ratetol=1.0 / qcomp=0.70 / qpmin=0 / qpmax=69 / qpstep=4 / cplxblur=20.0 / qblur=0.5 / ip_ratio=1.40 / pb_ratio=1.30 / aq=1:1.00
Default : Yes
Forced : No
Color primaries : BT.601 PAL
Transfer characteristics : BT.470 System B, BT.470 System G
Matrix coefficients : BT.601

Audio
ID : 2
Format : AC-3
Format/Info : Audio Coding 3
Mode extension : CM (complete main)
Format settings, Endianness : Big
Codec ID : A_AC3
Duration : 45mn 50s
Bit rate mode : Constant
Bit rate : 192 Kbps
Channel(s) : 2 channels
Channel positions : Front: L R
Sampling rate : 48.0 KHz
Bit depth : 16 bits
Compression mode : Lossy
Stream size : 62.9 MiB (11%)
Default : Yes
Forced : No




   Похожие торренты   Торрент   Размер 
В этой теме нет новых непрочитанных сообщений. Порох и дробь [01-24 из 24] (2012) SATRip от Files-x

18 | 9

12.9 ГБ

В этой теме нет новых непрочитанных сообщений. Порох и дробь [01-20 из 24] (2012) SATRip от КинозалSAT

0 | 1

10.74 ГБ

В этой теме нет новых непрочитанных сообщений. Порох (1985) DVDRip от KinoBit

160 | 15

1.32 ГБ

В этой теме нет новых непрочитанных сообщений. Гриль-бар «Порох» / The Spitfire Grill (1996) DVDRip

2 | 1

1.26 ГБ

В этой теме нет новых непрочитанных сообщений. Барабанная дробь / Drumline (2002) BDRip AVC

174 | 18

2.95 ГБ

В этой теме нет новых непрочитанных сообщений. Барабанная дробь / Drumline (2002) BDRip 1080p

57 | 8

11.4 ГБ

В этой теме нет новых непрочитанных сообщений. Барабанная дробь / Drumline (2002) BDRip от HQCLUB

35 | 10

2.18 ГБ




Вы не можете начинать темы
Вы не можете отвечать на сообщения
Вы не можете редактировать свои сообщения
Вы не можете удалять свои сообщения
Вы не можете добавлять вложения

Перейти:  
Для Мосгорсуда, Роскомнадзора и рекламодателей: mosgorsud-torrent[собачка]yandex.ru
 Вход
ppkBB3cker v.2 © 2008-2014 @ PPK
[ Time : 0.050s | 14 Queries | GZIP : Off ]

Торрент трекер RUTOR.IN, Не можете зайти на rutor.org? Какой новый адрес рутор? Какое зеркало рутор? Не работает rutor.org и зеркала? Тогда наш торрент специально для вас. Rutor.in неофициальное зеркало rutor. В случае если у Вас заблокирован rutor или вдруг Вы не можете на него зайти, то Вы без труда сможете скачать бесплатно и без рекламы последние новинки кино, игр, сериалов и прочего у нас, на Rutor.in. Не нужно использовать прокси, чтобы зайти на рутор, достаточно воспользоваться нашим ресурсом. Все новые фильмы, игры, сериалы, книги и музыка за 2013 и 2014 годы через торрент бесплатно. Скачивайте фильмы в хорошем качестве, игры для пк, xbox, playstation без регистрации. У нас вы найдете новые Зарубежные сериалы и Русские сериалы 2013, 2014, 2015 годов. Оставайтесь с нами, качайте любимые фильмы, игры, сериалы, книги и музыку.