img image001 image001 image001 image001 image001 image001 image001 image001 image001 image001 image001 image001 image001 image001 image001

Planets Sun Sun Sun
Статистика раздачи
Автор: Снежана | Размер: 2.19 ГБ | Добавлен: 26 июл 2013
Раздают: 87    Качают: 11
Скачать торрент
Скачать торрент
Описание торрента

СообщениеДобавлено: 26 июл 2013 

Операция "Тайфун"



#77

Год выпуска: 2013
Выпущено: Россия / Грин-фильм

Жанр: приключения, военный
Продолжительность: 00:43:40 + 00:44:27 + 00:44:50 + 00:44:49

Перевод: не требуется
Оригинальная аудиодорожка: русский
Субтитры: нет

Режиссер: Петр Амелин

В ролях: Богдан Эдуард Трухменёв, Мария Куликова, Сергей Баталов, Марина Казанкова, Андрей Аксенов, Елена Радевич, Андрей Павловец, Александр Ленин, Дмитрий Дячук, Даниил Воропаев...

Описание: Сериал рассказывает о группе советских разведчиков-диверсантов, выполняющих во время Второй мировой войны задания особой важности. Первое задание — уничтожить стратегические склады горючего, захваченные немцами во время стремительного наступления. Второе — уничтожить лабораторию, в которой немцами разрабатываются прототипы невидимых для радаров сверхзвуковых самолетов. Выполнение заданий сильно усложняет тот факт, что в первоначальном составе группы 3 мужчины и 2 женщины — без роковых любовных треугольников тут не обойтись…

Качество видео: DVDRip [DVD9 R5]
Формат видео: AVI

Видео: 720x400 (16:9), XviD 1560 Кбит/сек 25,000 fps / Бит/(Пиксели*Кадры): 0.217
Аудио: Dolby Digital Audio Russian 192 kbps 2.0 / 48 kHz

Раздача от:
Общее
Полное имя : Gruppa.Z.O.V-Zadaniya.osoboy.vazhnosti.2013.O.DVDRip_[Youtracker]_by_avproh�1.avi
Формат : AVI
Формат/Информация : Audio Video Interleave
Размер файла : 550 Мбайт
Продолжительность : 43 м.
Общий поток : 1761 Кбит/сек
Программа кодирования : VirtualDubMod 1.5.10.3 | www.virtualdub-fr.org || (build 2550/release)
Библиотека кодирования : VirtualDubMod build 2550/release

Видео
Идентификатор : 0
Формат : MPEG-4 Visual
Профиль формата : Advanced Simple@L5
Параметр BVOP формата : 1
Параметр QPel формата : Нет
Параметр GMC формата : Без точки перехода
Параметр матрицы формата : Выборочная
Идентификатор кодека : XVID
Идентификатор кодека/Подсказка : XviD
Продолжительность : 43 м.
Битрейт : 1560 Кбит/сек
Ширина : 720 пикселей
Высота : 400 пикселей
Соотношение сторон : 16:9
Частота кадров : 25,000 кадров/сек
Цветовое пространство : YUV
Субдискретизация насыщенности : 4:2:0
Битовая глубина : 8 бит
Тип развёртки : Прогрессивная
Метод сжатия : С потерями
Бит/(Пиксели*Кадры) : 0.217
Размер потока : 487 Мбайт (89%)
Библиотека кодирования : XviD 65

Аудио
Идентификатор : 1
Формат : AC-3
Формат/Информация : Audio Coding 3
Расширение режима : CM (complete main)
Параметр Endianness формата : Big
Идентификатор кодека : 2000
Продолжительность : 43 м.
Вид битрейта : Постоянный
Битрейт : 192 Кбит/сек
Каналы : 2 канала
Расположение каналов : Front: L R
Частота : 48,0 КГц
Битовая глубина : 16 бит
Метод сжатия : С потерями
Размер потока : 60,0 Мбайт (11%)
Выравнивание : Разделение по промежуткам
Продолжительность промежутка : 40 мс. (1,00 видеокадр)
Время предзагрузки промежутка : 500 мс.






   Похожие торренты   Торрент   Размер 
В этой теме нет новых непрочитанных сообщений. Группа «З.О.В.»: Задания особой важности. Операция "Тайфун" [01-04 из 4] (2013) DVDRip-AVC от Youtracker | лицензия

18 | 9

2.9 ГБ

В этой теме нет новых непрочитанных сообщений. Группа «З.О.В.»: Задания особой важности. Операция "Тайфун" [01-04 из 4] (2013) DVD9 R5 от Youtracker | лицензия

3 | 6

7.17 ГБ

В этой теме нет новых непрочитанных сообщений. Группа «З.О.В.»: Задания особой важности. Операция "Тайфун" [01-04 из 4] (2013) DVDRip от Generalfilm | КПК

46 | 3

862.37 МБ

В этой теме нет новых непрочитанных сообщений. Задания особой важности. Операция «Тайфун» [01-04 из 04] (2013) DVB

106 | 11

3.18 ГБ

В этой теме нет новых непрочитанных сообщений. Группа «З.О.В.»: Задания особой важности. Операция "Тайфун" [01-04 из 04] (2013) WEB-DLRip 720p

253 | 19

3.42 ГБ

В этой теме нет новых непрочитанных сообщений. Задания особой важности. Операция «Тайфун» [01-04 из 04] (2013) SATRip

120 | 8

1.95 ГБ

В этой теме нет новых непрочитанных сообщений. Курьерский особой важности [01-04 из 04] (2013) DVD9 от New-Team | Лицензия

35 | 14

6.42 ГБ




Вы не можете начинать темы
Вы не можете отвечать на сообщения
Вы не можете редактировать свои сообщения
Вы не можете удалять свои сообщения
Вы не можете добавлять вложения

Перейти:  
Для Мосгорсуда, Роскомнадзора и рекламодателей: mosgorsud-torrent[собачка]yandex.ru
 Вход
ppkBB3cker v.2 © 2008-2014 @ PPK
[ Time : 0.065s | 17 Queries | GZIP : Off ]
CGP output time : 0.040s | 5 Queries | GZIP : Off

Торрент трекер RUTOR.IN, Не можете зайти на rutor.org? Какой новый адрес рутор? Какое зеркало рутор? Не работает rutor.org и зеркала? Тогда наш торрент специально для вас. Rutor.in неофициальное зеркало rutor. В случае если у Вас заблокирован rutor или вдруг Вы не можете на него зайти, то Вы без труда сможете скачать бесплатно и без рекламы последние новинки кино, игр, сериалов и прочего у нас, на Rutor.in. Не нужно использовать прокси, чтобы зайти на рутор, достаточно воспользоваться нашим ресурсом. Все новые фильмы, игры, сериалы, книги и музыка за 2013 и 2014 годы через торрент бесплатно. Скачивайте фильмы в хорошем качестве, игры для пк, xbox, playstation без регистрации. У нас вы найдете новые Зарубежные сериалы и Русские сериалы 2013, 2014, 2015 годов. Оставайтесь с нами, качайте любимые фильмы, игры, сериалы, книги и музыку.