img image001 image001 image001 image001 image001 image001 image001 image001 image001 image001 image001 image001 image001 image001 image001

Planets Sun Sun Sun
Статистика раздачи
Автор: Снежана | Размер: 2.9 ГБ | Добавлен: 25 июл 2013
Раздают: 18    Качают: 9
Скачать торрент
Скачать торрент
Описание торрента

СообщениеДобавлено: 25 июл 2013 

Операция "Тайфун"



#77

Год выпуска: 2013
Выпущено: Россия / Грин-фильм

Жанр: приключения, военный
Продолжительность: 00:43:40 + 00:44:27 + 00:44:50 + 00:44:49

Перевод: не требуется
Оригинальная аудиодорожка: русский
Субтитры: нет

Режиссер: Петр Амелин

В ролях: Богдан Эдуард Трухменёв, Мария Куликова, Сергей Баталов, Марина Казанкова, Андрей Аксенов, Елена Радевич, Андрей Павловец, Александр Ленин, Дмитрий Дячук, Даниил Воропаев...

Описание: Сериал рассказывает о группе советских разведчиков-диверсантов, выполняющих во время Второй мировой войны задания особой важности. Первое задание — уничтожить стратегические склады горючего, захваченные немцами во время стремительного наступления. Второе — уничтожить лабораторию, в которой немцами разрабатываются прототипы невидимых для радаров сверхзвуковых самолетов. Выполнение заданий сильно усложняет тот факт, что в первоначальном составе группы 3 мужчины и 2 женщины — без роковых любовных треугольников тут не обойтись…

Качество видео: DVDRip-AVC [DVD9 R5]
Формат видео: MKV

Видео: 720x572@1024x572 (16:9), H264 2148 Кбит/сек 25,000 fps / Бит/(Пиксели*Кадры): 0.209
Аудио: Dolby Digital Audio Russian 192 kbps 2.0 / 48 kHz

Раздача от:
Общее
Полное имя : Gruppa.Z.O.V-Zadaniya.osoboy.vazhnosti.2013.O.DVDRip-AVC_[Youtracker]_by_avproh�1.mkv
Формат : Matroska
Версия формата : Version 2
Размер файла : 731 Мбайт
Продолжительность : 43 м.
Общий поток : 2339 Кбит/сек
Дата кодирования : UTC 2013-04-15 22:17:57
Программа кодирования : mkvmerge v5.0.1 ('Es ist Sommer') built on Nov 6 2011 16:23:40
Библиотека кодирования : libebml v1.2.2 + libmatroska v1.3.0

Видео
Идентификатор : 1
Формат : AVC
Формат/Информация : Advanced Video Codec
Профиль формата : High@L4.1
Параметр CABAC формата : Да
Параметр ReFrames формата : 11 кадров
Идентификатор кодека : V_MPEG4/ISO/AVC
Продолжительность : 43 м.
Битрейт : 2148 Кбит/сек
Ширина : 720 пикселей
Высота : 572 пикселя
Соотношение сторон : 16:9
Соотношение сторон в оригинале : 16:9
Режим частоты кадров : Постоянный
Частота кадров : 25,000 кадров/сек
Цветовое пространство : YUV
Субдискретизация насыщенности : 4:2:0
Битовая глубина : 8 бит
Тип развёртки : Прогрессивная
Бит/(Пиксели*Кадры) : 0.209
Размер потока : 656 Мбайт (90%)
Библиотека кодирования : x264 core 119 r2106 07efeb4
Настройки программы : cabac=1 / ref=11 / deblock=1:-2:-1 / analyse=0x3:0x113 / me=umh / subme=9 / psy=1 / psy_rd=1.00:0.20 / mixed_ref=1 / me_range=32 / chroma_me=1 / trellis=1 / 8x8dct=1 / cqm=0 / deadzone=21,11 / fast_pskip=0 / chroma_qp_offset=-3 / threads=6 / sliced_threads=0 / nr=0 / decimate=0 / interlaced=0 / bluray_compat=0 / constrained_intra=0 / bframes=8 / b_pyramid=2 / b_adapt=2 / b_bias=0 / direct=3 / weightb=1 / open_gop=0 / weightp=2 / keyint=250 / keyint_min=25 / scenecut=40 / intra_refresh=0 / rc_lookahead=60 / rc=2pass / mbtree=1 / bitrate=2148 / ratetol=1.0 / qcomp=0.60 / qpmin=0 / qpmax=69 / qpstep=4 / cplxblur=20.0 / qblur=0.5 / ip_ratio=1.40 / aq=1:1.00
Default : Да
Forced : Нет

Аудио
Идентификатор : 2
Формат : AC-3
Формат/Информация : Audio Coding 3
Расширение режима : CM (complete main)
Параметр Endianness формата : Big
Идентификатор кодека : A_AC3
Продолжительность : 43 м.
Вид битрейта : Постоянный
Битрейт : 192 Кбит/сек
Каналы : 2 канала
Расположение каналов : Front: L R
Частота : 48,0 КГц
Битовая глубина : 16 бит
Метод сжатия : С потерями
Размер потока : 60,0 Мбайт (8%)
Default : Да
Forced : Нет





   Похожие торренты   Торрент   Размер 
В этой теме нет новых непрочитанных сообщений. Группа «З.О.В.»: Задания особой важности. Операция "Тайфун" [01-04 из 4] (2013) DVDRip от Youtracker | лицензия

87 | 11

2.19 ГБ

В этой теме нет новых непрочитанных сообщений. Группа «З.О.В.»: Задания особой важности. Операция "Тайфун" [01-04 из 4] (2013) DVD9 R5 от Youtracker | лицензия

3 | 6

7.17 ГБ

В этой теме нет новых непрочитанных сообщений. Группа «З.О.В.»: Задания особой важности. Операция "Тайфун" [01-04 из 4] (2013) DVDRip от Generalfilm | КПК

46 | 3

862.37 МБ

В этой теме нет новых непрочитанных сообщений. Задания особой важности. Операция «Тайфун» [01-04 из 04] (2013) DVB

106 | 11

3.18 ГБ

В этой теме нет новых непрочитанных сообщений. Группа «З.О.В.»: Задания особой важности. Операция "Тайфун" [01-04 из 04] (2013) WEB-DLRip 720p

406 | 31

3.42 ГБ

В этой теме нет новых непрочитанных сообщений. Задания особой важности. Операция «Тайфун» [01-04 из 04] (2013) SATRip

120 | 8

1.95 ГБ

В этой теме нет новых непрочитанных сообщений. Курьерский особой важности [01-04 из 04] (2013) DVD9 от New-Team | Лицензия

35 | 15

6.42 ГБ




Вы не можете начинать темы
Вы не можете отвечать на сообщения
Вы не можете редактировать свои сообщения
Вы не можете удалять свои сообщения
Вы не можете добавлять вложения

Перейти:  
Для Мосгорсуда, Роскомнадзора и рекламодателей: mosgorsud-torrent[собачка]yandex.ru
 Вход
ppkBB3cker v.2 © 2008-2014 @ PPK
[ Time : 0.028s | 15 Queries | GZIP : Off ]

Торрент трекер RUTOR.IN, Не можете зайти на rutor.org? Какой новый адрес рутор? Какое зеркало рутор? Не работает rutor.org и зеркала? Тогда наш торрент специально для вас. Rutor.in неофициальное зеркало rutor. В случае если у Вас заблокирован rutor или вдруг Вы не можете на него зайти, то Вы без труда сможете скачать бесплатно и без рекламы последние новинки кино, игр, сериалов и прочего у нас, на Rutor.in. Не нужно использовать прокси, чтобы зайти на рутор, достаточно воспользоваться нашим ресурсом. Все новые фильмы, игры, сериалы, книги и музыка за 2013 и 2014 годы через торрент бесплатно. Скачивайте фильмы в хорошем качестве, игры для пк, xbox, playstation без регистрации. У нас вы найдете новые Зарубежные сериалы и Русские сериалы 2013, 2014, 2015 годов. Оставайтесь с нами, качайте любимые фильмы, игры, сериалы, книги и музыку.