img image001 image001 image001 image001 image001 image001 image001 image001 image001 image001 image001 image001 image001 image001 image001
Planets Sun Sun Sun
Статистика раздачи
Автор: Снежана | Размер: 3.51 ГБ | Добавлен: 25 июл 2013
Раздают: 87    Качают: 34
Скачать торрент
Скачать торрент
Описание торрента

СообщениеДобавлено: 25 июл 2013 

[imgright]http://i51.fastpic.ru/big/2013/0116/86/620c160fa7bc764b96032af716270186.jpg" style="float:right;" />Название: Блудливая Калифорния
Оригинальное название: Californication
Год выпуска: 2013
Страна: США
Жанр: комедия, драма
Продолжительность: ~ 00:30:00
Перевод: Профессиональный (многоголосый, закадровый) [NovaFilm]
Субтитры: Нет
Режиссер: Том Капинос

В ролях: Дэвид Духовны, Наташа МакЭлхоун, Мадлен Мартин, Эван Хэндлер, Памела Адлон, Мадлен Зима, Каллум Кейт Ренни, Рэйчел Майнер, Карла Галло, Ева Амурри
Описание: Приключени Хэнка Муди продолжаются! По сюжету, Хэнк будет работать на Бродвее, где будут ставить мюзикл, по его книге «Бог ненавидит всех нас». В нескольких эпизодах появится Тим Минчин. Ему досталась роль Аттикуса Фетча. Его ввели в сценарий специально для того, чтобы он выступил автором саундтрека для Бродвейского мюзикла Crazy Little Thing Called Love ( «Эта сумасшедшая штучка по имени любовь»), основанного на одноименном фильме по роману Хэнка Муди. Аттикус попытается уговорить Хэнка сочинить сценарий для мюзикла, обещая ему, что вместе они превратят его в “рок-оперу”. Также в этом сезоне нас ждут флешбеки.




Качество: HDTVRip
Формат: AVI
Видео кодек: XviD
Аудио кодек: AC3
Видео: 720x400, 23.976 fps, 1041 kbps, 0.151 bit/pixel
Аудио (RU): 48 kHz, 2 ch, 192 kbps [NovaFilm]
Аудио (EN): 48 kHz, 2 ch, 192 kbps [Original]

Релиз: [img]http://i32.fastpic.ru/big/2011/1013/c1/240f919fdf8dc1fb334abdda95cd1ac1.jpg[/imgright][b][img]http://s017.radikal.ru/i408/1301/6b/1d99e54b60dct.jpg[/img] [/center][/spoiler]
General
Complete name : F:Шара!!С торрентаCalifornication - Season 6 (NovaFilm)californication.s06e01.hdtv.rus.eng.novafilm.tv.avi
Format : AVI
Format/Info : Audio Video Interleave
File size : 300 MiB
Duration : 29mn 7s
Overall bit rate : 1 439 Kbps
Writing application : VirtualDubMod 1.5.10.2 (build 2542/release)
Writing library : VirtualDubMod build 2542/release

Video
ID : 0
Format : MPEG-4 Visual
Codec ID : XVID
Codec ID/Hint : XviD
Duration : 29mn 7s
Source duration : 21mn 31s
Bit rate : 4 393 Kbps
Width : 720 pixels
Height : 400 pixels
Display aspect ratio : 16:9
Frame rate : 23.976 fps
Color space : YUV
Chroma subsampling : 4:2:0
Compression mode : Lossy
Bits/(Pixel*Frame) : 0.636
Stream size : 676 MiB

Audio #1
ID : 1
Format : AC-3
Format/Info : Audio Coding 3
Codec ID : 2000
Duration : 29mn 6s
Source duration : 47h 9mn
Bit rate mode : Constant
Bit rate : 192 Kbps
Channel(s) : 2 channels
Sampling rate : 48.0 KHz
Compression mode : Lossy
Stream size : 3.79 GiB
Alignment : Aligned on interleaves
Interleave, duration : 42 ms (1.00 video frame)
Interleave, preload duration : 500 ms

Audio #2
ID : 2
Format : AC-3
Format/Info : Audio Coding 3
Codec ID : 2000
Duration : 29mn 6s
Source duration : 21mn 30s
Bit rate mode : Constant
Bit rate : 192 Kbps
Channel(s) : 2 channels
Sampling rate : 48.0 KHz
Compression mode : Lossy
Stream size : 29.5 MiB (10%)
Alignment : Aligned on interleaves
Interleave, duration : 42 ms (1.00 video frame)
Interleave, preload duration : 500 ms
[13.01.2013] 01. «The Unforgiven» (рус. «Непрощённый»)
[20.01.2013] 02. «Quitters» (рус. «Рецидивисты»)
[27.01.2013] 03. «Dead Rock Stars» (рус. «Мёртвые рок-звёзды»)
[10.02.2013] 04. «Hell Bent for Leather» (рус. «Чертовски быстро»)
[17.02.2013] 05. «Rock and a Hard Place» (рус. «Молот и наковальня»)
[24.02.2013] 06. «In the Clouds» (рус. «В облаках»)
[03.03.2013] 07. «The Dope Show» (рус. «Наркотическое шоу»)
[10.03.2013] 08. «Everybody's a Fucking Critic» (рус. «Вокруг одни критики»)
[17.03.2013] 09. «Mad Dogs & Englishmen» (рус. «Бешеные псы и англичане»)
[24.03.2013] 10. «Blind Faith» (рус. «Слепая вера»)
[31.03.2013] 11. «The Abby» (рус. «Эбби»)
[07.04.2013] 12. «I'll Lay My Monsters Down» (рус. «Я успокою своих монстров»)



   Похожие торренты   Торрент   Размер 
В этой теме нет новых непрочитанных сообщений. Блудливая Калифорния / Californication [S06] (2013) HDTVRip 720p | NovaFilm

39 | 5

12.88 ГБ

В этой теме нет новых непрочитанных сообщений. Блудливая Калифорния / Californication [S04] (2011) HDTVRip от NovaFilm

112 | 10

2.94 ГБ

В этой теме нет новых непрочитанных сообщений. Блудливая Калифорния / Californication [S07] (2014) HDTVRip | NewStudio & NovaFilm

437 | 102

3.95 ГБ

В этой теме нет новых непрочитанных сообщений. Блудливая Калифорния / Californication [S4] (2011) HDTVRip 720p от NovaFilm

35 | 4

13.12 ГБ

В этой теме нет новых непрочитанных сообщений. Блудливая Калифорния / Californication [S05] (2012) HDTVRip, WEB-DLRip | NovaFilm

60 | 8

4.15 ГБ

В этой теме нет новых непрочитанных сообщений. Блудливая Калифорния / Californication [07x01-05 из 12] (2014) HDTVRip | NewStudio & NovaFilm

75 | 31

1.61 ГБ

В этой теме нет новых непрочитанных сообщений. Блудливая Калифорния / Californication [S01-07] (2007-2014) HDTVRip, WEB-DLRip | NovaFilm

630 | 460

24.51 ГБ




Вы не можете начинать темы
Вы не можете отвечать на сообщения
Вы не можете редактировать свои сообщения
Вы не можете удалять свои сообщения
Вы не можете добавлять вложения

Перейти:  
Для Мосгорсуда, Роскомнадзора и рекламодателей: mosgorsud-torrent[собачка]yandex.ru
 Вход
ppkBB3cker v.2 © 2008-2014 @ PPK
[ Time : 0.029s | 15 Queries | GZIP : Off ]

cron