img image001 image001 image001 image001 image001 image001 image001 image001 image001 image001 image001 image001 image001 image001 image001

Planets Sun Sun Sun
Статистика раздачи
Автор: Снежана | Размер: 3.43 ГБ | Добавлен: 25 июл 2013
Раздают: 32    Качают: 18
Скачать торрент
Скачать торрент
Описание торрента

СообщениеДобавлено: 25 июл 2013 

#77

Информация о фильме
Название: Тайны Смолвиля
Оригинальное название: Smallville
Год выхода: 2005
Жанр: Фантастика
Режиссер: Джеймс Маршалл, Грег Биман, Майк Рол и др.
В ролях: Том Уэллинг, Майкл Розенбаум, Кристин Кройк, Сэм Джонс III, Эллисон Мэк, Джон Гловер, Аннетт О’Тул, Джон Шнайдер, Эрика Дюранс, Джастин Хартли и др.

О фильме:
На Землю прилетает космический корабль Брейнниака, вторым потоком метеоритного дождя разрушая половину Смолвилля. Двое криптонцев (мужчина и женщина) — слуги некоего генерала Зода — прибыли сюда, чтобы отомстить сыну Джор-Эла… Тем временем на Северном полюсе кристалл создает ледяной замок — Крепость Одиночества.
Кларк вступает в поединок со слугами Зода, которые пытаются отправить его в Фантомную Зону — потустороннюю тюрьму. В последний момент Кларку удается одолеть криптонцев и отправить в Фантомную Зону их самих. Джор-Эл лишает сына сил за то, что тот не вернулся в Крепость Одиночества, чтобы начать обучение, предпочтя своему предназначению жизнь простого смертного.
Лекс, навещая отца, невольно организует побег трех метеоритных фриков, которые берут в заложники родителей Кларка и Лану. Кларку удается одолеть их без своих сил. Решив, что побег был подстроен Лексом, он приходит к нему в дом, и между ними завязывается драка. Лекс убеждается в том, что Кларк — обычный человек и между ними дружба заканчивается.
И, наконец-то за все 5 сезонов, Кларк провёл незабываемую ночь с любимой девушкой, Ланой Лэнг, но вскоре Кларк погибает от рук психа-дебила, который собирается уничтожить Смолвилль ядерным ударом. Джор-Эл воскрешает сына и возвращает ему силу, но предупреждает, что по закону Равновесия взамен один из дорогих Кларку людей умрет.
Кларк учится в университете, где его преподавателем и противником в сезоне является вестник Зода Милтон Файн, он же Брейнниак, искусственный интеллект с Криптона, взорвавший планету для достижения своих целей. Выдавая себя за криптонца, Файн входит в доверие к Кларку и едва не выпускает Зода из Фантомной Зоны, но благодаря Хлое Кал-Эл одерживает победу над Файном.
Лекс Лютор и Джонатан Кент баллотируются в сенаторы. Кларк открывает свою тайну Лане, показывая ей Крепость Одиночества, и свои способности. Там же он делает ей предложение. И вечером она даёт своё согласие и говорит о своей любви. Лекс проигрывает в выборах и звонит Лане, она приезжает, разговор заканчивается ссорой и она уезжает. Лана едет по шоссе и не справляется с управлением из-за звонка и преследования Лекса, погибает. Кларк приходит в Крепость Одииночества и просит вернуть Лану, он возвращается в прошлое, чтобы не допустить её смерти, но вместо Ланы от сердечного приступа умирает Джонатан Кент. Некоторое время Лана и Кларк встречаются, он ей не рассказывает о себе и между ними по-прежнему есть тайна. Позже Лана начинает встречаться с Лексом. Лайнел Лютор узнаёт секрет Кларка, начинает его оберегать и становится оракулом Джор-Эла.
Восстановившийся Милтон Файн наделяет Лекса силой криптонца, чтобы использовать его тело в качестве телесной оболочки для души Зода. Джор-Эл велит Кларку убить Лекса, но вместо этого он пробивает Файна, не подозревая, что тем самым освободит Зода и позволит ему вселиться в Лекса. Генерал Зод отправляет Кларка в Фантомную Зону.



Страна: США
Продолжительность: 22 x ~00:44:00
Перевод: Профессиональный (многоголосый, закадровый) [СТС]

Файл
Формат: MP4
Качество: DVDRip | КПК
Видео: MPEG-4 AVC (x264), 640x360, ~400 kbps, 23.976 fps
Аудио: AAC LC, 48.0 KHz, 2 ch, 128 Kbps
Субтитры: Нет

Семпл


K:киноTainy.Smolvilya.Sezon5.2005.AVC.DVDRip.KPK.GeneralfilmTainy.Smolvilya.s05e01.2005.AVC.DVDRip.KPK.Generalfilm.mp4
Format : MPEG-4
Format profile : Base Media
Codec ID : isom
File size : 161 MiB
Duration : 42mn 27s
Overall bit rate mode : Variable
Overall bit rate : 530 Kbps
Encoded date : UTC 2013-04-08 15:15:44
Tagged date : UTC 2013-04-08 15:15:44
Video #1
ID : 1
Format : AVC
Format/Info : Advanced Video Codec
Format profile : Baseline@L4.1
Format settings, CABAC : No
Format settings, ReFrames : 6 frames
Codec ID : avc1
Codec ID/Info : Advanced Video Coding
Duration : 42mn 27s
Bit rate : 400 Kbps
Maximum bit rate : 2 375 Kbps
Width : 640 pixels
Height : 360 pixels
Display aspect ratio : 16:9
Frame rate mode : Constant
Frame rate : 23.976 fps
Color space : YUV
Chroma subsampling : 4:2:0
Bit depth : 8 bits
Scan type : Progressive
Bits/(Pixel*Frame) : 0.072
Stream size : 121 MiB (75%)
Writing library : x264 core 116 r2074 2641b9e
Encoding settings : cabac=0 / ref=6 / deblock=1:-1:-1 / analyse=0x1:0x111 / me=umh / subme=7 / psy=1 / psy_rd=1.00:0.00 / mixed_ref=0 / me_range=16 / chroma_me=1 / trellis=1 / 8x8dct=0 / cqm=0 / deadzone=21,11 / fast_pskip=0 / chroma_qp_offset=-2 / threads=3 / sliced_threads=0 / nr=0 / decimate=1 / interlaced=0 / bluray_compat=0 / constrained_intra=0 / bframes=0 / weightp=0 / keyint=250 / keyint_min=23 / scenecut=40 / intra_refresh=0 / rc_lookahead=60 / rc=2pass / mbtree=1 / bitrate=400 / ratetol=1.0 / qcomp=0.60 / qpmin=0 / qpmax=69 / qpstep=4 / cplxblur=20.0 / qblur=0.5 / ip_ratio=1.40 / aq=1:1.00
Encoded date : UTC 2013-04-08 15:15:44
Tagged date : UTC 2013-04-08 15:15:48
Audio #2
ID : 2
Format : AAC
Format/Info : Advanced Audio Codec
Format profile : LC
Codec ID : 40
Duration : 42mn 27s
Bit rate mode : Variable
Bit rate : 128 Kbps
Maximum bit rate : 146 Kbps
Channel(s) : 2 channels
Channel positions : Front: L R
Sampling rate : 48.0 KHz
Compression mode : Lossy
Stream size : 38.9 MiB (24%)
Encoded date : UTC 2013-04-08 15:15:48
Tagged date : UTC 2013-04-08 15:15:48

Релиз от:



   Похожие торренты   Торрент   Размер 
В этой теме нет новых непрочитанных сообщений. Тайны Смолвиля / Smallville [S05] (2005) HD-DVDRip-AVC

11 | 5

17.92 ГБ

В этой теме нет новых непрочитанных сообщений. Тайны смолвиля (5 сезон) / Smallville (Season 5) (2005) DVDRip

47 | 30

8.35 ГБ

В этой теме нет новых непрочитанных сообщений. Тайны смолвиля (4 сезон) / Smallville (Season 4) (2004-2005) DVDRip

28 | 46

7.62 ГБ

В этой теме нет новых непрочитанных сообщений. Тайны Смолвиля / Smallville [S04] (2004-2005) WEB-DL 720p | СТС

131 | 42

29.08 ГБ

В этой теме нет новых непрочитанных сообщений. Тайны Смолвиля / Smallville [S05] (2005-2006) HDDVDRip 720p | СТС, AXN Sci-Fi

193 | 22

34.53 ГБ

В этой теме нет новых непрочитанных сообщений. Тайны Смолвиля / Smallville [S02] (2002) WEB-DLRip | КПК от Generalfilm

46 | 36

3.68 ГБ

В этой теме нет новых непрочитанных сообщений. Тайны Смолвиля / Smallville [S06] (2006) HDRip | КПК от Generalfilm

29 | 27

3.41 ГБ




Вы не можете начинать темы
Вы не можете отвечать на сообщения
Вы не можете редактировать свои сообщения
Вы не можете удалять свои сообщения
Вы не можете добавлять вложения

Перейти:  
Для Мосгорсуда, Роскомнадзора и рекламодателей: mosgorsud-torrent[собачка]yandex.ru
 Вход
ppkBB3cker v.2 © 2008-2014 @ PPK
[ Time : 0.059s | 14 Queries | GZIP : Off ]

Торрент трекер RUTOR.IN, Не можете зайти на rutor.org? Какой новый адрес рутор? Какое зеркало рутор? Не работает rutor.org и зеркала? Тогда наш торрент специально для вас. Rutor.in неофициальное зеркало rutor. В случае если у Вас заблокирован rutor или вдруг Вы не можете на него зайти, то Вы без труда сможете скачать бесплатно и без рекламы последние новинки кино, игр, сериалов и прочего у нас, на Rutor.in. Не нужно использовать прокси, чтобы зайти на рутор, достаточно воспользоваться нашим ресурсом. Все новые фильмы, игры, сериалы, книги и музыка за 2013 и 2014 годы через торрент бесплатно. Скачивайте фильмы в хорошем качестве, игры для пк, xbox, playstation без регистрации. У нас вы найдете новые Зарубежные сериалы и Русские сериалы 2013, 2014, 2015 годов. Оставайтесь с нами, качайте любимые фильмы, игры, сериалы, книги и музыку.