img image001 image001 image001 image001 image001 image001 image001 image001 image001 image001 image001 image001 image001 image001 image001

Planets Sun Sun Sun
Статистика раздачи
Автор: Снежана | Размер: 18.09 ГБ | Добавлен: 25 июл 2013
Раздают: 11    Качают: 6
Скачать торрент
Скачать торрент
Описание торрента

СообщениеДобавлено: 25 июл 2013 

Ходячие мертвецы [Сезон 2] / The Walking Dead [Season 2] (2011) BDRip
Релиз от HQ-ViDEO

«Fight the dead. Fear the living.»
Информация о фильме:
Название: Ходячие мертвецы
Оригинальное название: The Walking Dead
Год выхода: 2011
Жанр: Ужасы, Триллер, Драма
Режиссёр: Эрнест Р. Дикерсон / Ernest R. Dickerson, Гай Ферленд / Guy Ferland, Билл Джирхарт / Bill Gierhart, Грегори Никотеро / Gregory Nicotero, Гвинет Хердер-Пэйтон / Gwyneth Horder-Payton, Мишель Максвелл МакЛарен / Michelle Maxwell MacLaren, Дэвид Бойд / David Boyd
В ролях: Эндрю Линкольн /Andrew Lincoln/, Сара Уэйн Кэллис /Sarah Wayne Callies/, Стивен Ян /Steven Yeun/, Лори Холден /Laurie Holden/, Норман Ридус /Norman Reedus/, Чендлер Риггз /Chandler Riggs/, Мелисса Сюзанн МакБрайд /Melissa Suzanne McBride/, Лорен Кохэн /Lauren Cohan/, Скотт Уилсон /Scott Wilson/, Эмили Кинни /Emily Kinney/
Сюжет сериала:
Сериал рассказывает историю жизни семьи шерифа после того, как «зомби» - эпидемия апокалипсических масштабов захлестнула земной шар. Шериф Рик Граймс путешествует со своей семьей и небольшой группой выживших в поисках безопасного места для жизни. Но постоянный страх смерти каждый день приносит тяжелые потери, заставляя героев почувствовать глубины человеческой жестокости. Рик пытается спасти свою семью, и открывает для себя, что всепоглощающий страх тех, кто выжил, может быть опаснее бессмысленных мертвецов, бродящих по земле.

Страна: США
Продолжительность: 01:04:55 + 01:02:48 + 12 х 00:43:00
Перевод: Русский профессиональный (многоголосый, закадровый / FoxCrime) + Оригинальная дорожка + Русский профессиональный (двухголосый, закадровый / Кубик в кубике / Отдельно) + Русский профессиональный (многоголосый, закадровый / LostFilm / Отдельно) + Украинский профессиональный (многоголосый, закадровый / UATEAM / Отдельно)
Субтитры: Русские (полные, форсированные), Английские
Информация о файле:
Качество: BDRip
Файл: AVI
Кодек: XviD, build 65 codec
Видео: 704 x 400, 16:9; 23.976 fps; ~ 1940-1999 kbps; 0.288-0.296 bit/pixel
Аудио #1: 48 kHz, AC3 Dolby Digital, 3/2 (L,C,R,l,r) + LFE ch, ~448.00 kbps avg | MVO FoxCrime
Аудио #2: 48 kHz, AC3 Dolby Digital, 3/2 (L,C,R,l,r) + LFE ch, ~448.00 kbps avg | Eng
Аудио #3: 48 kHz, AC3 Dolby Digital, 3/2 (L,C,R,l,r) + LFE ch, ~448.00 kbps avg | DVO Кубик в кубике | отдельно
Аудио #4: 48 kHz, AC3 Dolby Digital, 3/2 (L,C,R,l,r) + LFE ch, ~448.00 kbps avg | MVO LostFilm | отдельно
Аудио #5: 48 kHz, AC3 Dolby Digital, 3/2 (L,C,R,l,r) + LFE ch, ~448.00 kbps avg | UKR MVO UATEAM | отдельно
Размер: 1081 Mb, 1305 Mb, 12 х (873-901) Mb (3 )



General
Complete name : Hodyachie.Mertvetsy.S02.2011.DUAL.BDRip.XviD.AC3.-HQ-ViDEOHodyachie.Mertvetsy.S02.E01.2011.DUAL.BDRip.XviD.AC3.-HQ-ViDEO.avi
Format : AVI
Format/Info : Audio Video Interleave
File size : 1.28 GiB
Duration : 1h 2mn
Overall bit rate : 2 906 Kbps
Writing application : VirtualDubMod 1.5.10.2 (build 2542/release)
Writing library : VirtualDubMod build 2542/release
Video
ID : 0
Format : MPEG-4 Visual
Format profile : Advanced Simple@L5
Format settings, BVOP : 2
Format settings, QPel : No
Format settings, GMC : No warppoints
Format settings, Matrix : Custom
Codec ID : XVID
Codec ID/Hint : XviD
Duration : 1h 2mn
Bit rate : 1 996 Kbps
Width : 704 pixels
Height : 400 pixels
Display aspect ratio : 16:9
Frame rate : 23.976 fps
Color space : YUV
Chroma subsampling : 4:2:0
Bit depth : 8 bits
Scan type : Progressive
Compression mode : Lossy
Bits/(Pixel*Frame) : 0.296
Stream size : 897 MiB (69%)
Writing library : XviD 65
Audio #1
ID : 1
Format : AC-3
Format/Info : Audio Coding 3
Mode extension : CM (complete main)
Format settings, Endianness : Big
Codec ID : 2000
Duration : 1h 2mn
Bit rate mode : Constant
Bit rate : 448 Kbps
Channel(s) : 6 channels
Channel positions : Front: L C R, Side: L R, LFE
Sampling rate : 48.0 KHz
Bit depth : 16 bits
Compression mode : Lossy
Stream size : 201 MiB (15%)
Alignment : Split accross interleaves
Interleave, duration : 42 ms (1.00 video frame)
Interleave, preload duration : 500 ms
Audio #2
ID : 2
Format : AC-3
Format/Info : Audio Coding 3
Mode extension : CM (complete main)
Format settings, Endianness : Big
Codec ID : 2000
Duration : 1h 2mn
Bit rate mode : Constant
Bit rate : 448 Kbps
Channel(s) : 6 channels
Channel positions : Front: L C R, Side: L R, LFE
Sampling rate : 48.0 KHz
Bit depth : 16 bits
Compression mode : Lossy
Stream size : 201 MiB (15%)
Alignment : Split accross interleaves
Interleave, duration : 42 ms (1.00 video frame)
Interleave, preload duration : 500 ms
Сериал является экранизацией одноименной комикс-серии, которая начала выходить в 2003 году.
Одним из продюсеров сериала является Роберт Киркман — автор (сценарист) комикса.
Первую серию «The Walking Dead» посмотрели 5,3 млн. зрителей. Показ стал самым рейтинговым в истории телеканала АМС.
Актеры, которые играли зомби, должны были пройти школу зомби, чтобы научиться ходить и двигаться как зомби.
Эмблема, замеченная на футболке сына Рика Карла, является эмблемой другого комикса, созданного Робертом Киркманом, «Научная Собака».
В отличие от исходного комикса, в сериале присутствуют персонажи, которых не было в графической новелле. Например, братья Диксоны, Ти-Дог.
В некоторых эпизодах второго сезона герои курят сигареты марки «Morley»; точно такие же сигареты курил всеми известный персонаж из сериала «Секретные материалы» — Курильщик.
В официальной группе сериала на Фейсбуке насчитывается более 10 млн фанатов.
5000 к 1 — таково соотношение зомби и живых людей в сериале.
[*] 3 часа ушло на грим и подготовку самого запоминающегося живого мертвеца.

Релиз:
Автор рипа: Overlord
Источник: Blu-Ray Remux
ПРИЯТНОГО ПРОСМОТРА!



   Похожие торренты   Торрент   Размер 
В этой теме нет новых непрочитанных сообщений. Ходячие мертвецы / The Walking Dead [S01] (2010) BDRip от HQ-ViDEO

386 | 49

8.27 ГБ

В этой теме нет новых непрочитанных сообщений. Ходячие мертвецы / The Walking Dead [S03] (2012-2013) BDRip от HQ-ViDEO

99 | 79

13.99 ГБ

В этой теме нет новых непрочитанных сообщений. Ходячие мертвецы / The Walking Dead [S01] (2010) BDRip 720p от HQ-ViDEO

18 | 12

21.29 ГБ

В этой теме нет новых непрочитанных сообщений. Ходячие мертвецы / The Walking Dead [S04] (2013-2014) BDRip от HQ-ViDEO

39 | 18

13.97 ГБ

В этой теме нет новых непрочитанных сообщений. Ходячие мертвецы [Сезон 5] / The Walking Dead [Season 5] (2014-2015) BDRip от HQ-ViDEO

83 | 24

14.56 ГБ

В этой теме нет новых непрочитанных сообщений. Ходячие мертвецы / The Walking Dead [S02] (2011) BDRip от HQCLUB

50 | 9

11.57 ГБ

В этой теме нет новых непрочитанных сообщений. Ходячие мертвецы / The Walking Dead [S02] (2011-2012) BDRip-AVC от HQCLUB

67 | 14

16.77 ГБ




Вы не можете начинать темы
Вы не можете отвечать на сообщения
Вы не можете редактировать свои сообщения
Вы не можете удалять свои сообщения
Вы не можете добавлять вложения

Перейти:  
Для Мосгорсуда, Роскомнадзора и рекламодателей: mosgorsud-torrent[собачка]yandex.ru
 Вход
ppkBB3cker v.2 © 2008-2014 @ PPK
[ Time : 0.065s | 14 Queries | GZIP : Off ]

Торрент трекер RUTOR.IN, Не можете зайти на rutor.org? Какой новый адрес рутор? Какое зеркало рутор? Не работает rutor.org и зеркала? Тогда наш торрент специально для вас. Rutor.in неофициальное зеркало rutor. В случае если у Вас заблокирован rutor или вдруг Вы не можете на него зайти, то Вы без труда сможете скачать бесплатно и без рекламы последние новинки кино, игр, сериалов и прочего у нас, на Rutor.in. Не нужно использовать прокси, чтобы зайти на рутор, достаточно воспользоваться нашим ресурсом. Все новые фильмы, игры, сериалы, книги и музыка за 2013 и 2014 годы через торрент бесплатно. Скачивайте фильмы в хорошем качестве, игры для пк, xbox, playstation без регистрации. У нас вы найдете новые Зарубежные сериалы и Русские сериалы 2013, 2014, 2015 годов. Оставайтесь с нами, качайте любимые фильмы, игры, сериалы, книги и музыку.