img image001 image001 image001 image001 image001 image001 image001 image001 image001 image001 image001 image001 image001 image001 image001

Planets Sun Sun Sun
Статистика раздачи
Автор: Снежана | Размер: 10.77 ГБ | Добавлен: 25 июл 2013
Раздают: 0    Качают: 2
Скачать торрент
Скачать торрент
Описание торрента

СообщениеДобавлено: 25 июл 2013 

#77

Название: Город Хищниц
Оригинальное название: Cougar Town
Год выпуска: 2013
Страна: США
Жанр: комедия
Продолжительность: 15 х ~ 00:22:00
Перевод: Профессиональный (многоголосый закадровый) - LostFilm
Субтитры: нет
Режиссер: Билл Лоуренс, Кевин Бигель

В ролях: Кортни Кокс, Криста Миллер, Бизи Филиппс, Брайан Ван Холт, Джош Хопкинс, Иэн Гомес, Дэн Берд, Скот Фоли и др.

Описание: Сериал Cougar Town рассказывает о недавно разведенной 40-летней Джулс Кобб и ее сыне-подростке Трэвисе, живущих в небольшом городке в штате Флорида. Этот город можно охарактеризовать одним словом – Cougars. Это и название популярной футбольной команды местной школы, и … немалое количество разведенных женщин среднего возраста, ищущих парней помоложе, чтобы скрасить свой досуг. Джулс не хочет стать похожей на них, но после прошедшего развода и своих немолодых лет она хочет большего для своей личной жизни. С помощью лучшей подруги Элли и коллеги по работе Лори она пытается вспомнить, как же это – ходить на свидания и знакомиться с мужчинами.



Качество: WEB-DL 720p
Формат: МКV
Видео: MPEG-4 AVC, 4041 Кбит/с, 1280x720
Аудио rus: AC3, 2 ch, 384 Кбит/с
Аудио eng: AC3, 2 ch, 384 Кбит/с

Добавлена 15-ая серия.

01. Тоскливое воскресенье / Blue Sunday
02. Я хочу знать / I Need to Know
03. Между двух миров / Between Two Worlds
04. I Should Have Known It
05. Бегом к мечте / Runnin' Down a Dream
06. Бессонница / Restless
07. Флиртуя со временем / Flirting with Time
08. Мы с тобой ещё встретимся / You and I Will Meet Again
09. Сделай лучше / Make It Better
10. Ты мне скажи / You Tell Me
11. Спасительная благодать / Saving Grace
12. Этот старый городок / This Old Town
13. Преступный умысел / The Criminal Mind
14. Не забывайся / Don't Fade on Me
15. С любовью - на край света / Have Love Will Travel
Формат : Matroska
Размер файла : 775 Мбайт
Продолжительность : 22 м.
Общий поток : 4812 Кбит/сек
Дата кодирования : UTC 2013-01-12 12:56:22
Программа кодирования : mkvmerge v4.2.0 ('No Talking') сборка от Jul 28 2010 18:38:23
Библиотека кодирования : libebml v1.0.0 + libmatroska v1.0.0

Видео
Идентификатор : 1
Формат : AVC
Формат/Информация : Advanced Video Codec
Профиль формата : High@L3.1
Параметр CABAC формата : Да
Параметр ReFrames формата : 4 кадра
Параметры GOP формата : M=3, N=6
Идентификатор кодека : V_MPEG4/ISO/AVC
Продолжительность : 22 м.
Битрейт : 4041 Кбит/сек
Ширина : 1280 пикс.
Высота : 720 пикс.
Соотношение сторон : 16:9
Частота кадров : 23,976 кадр/сек
Цветовое пространство : YUV
Подвыборка цветности : 4:2:0
Битовая глубина : 8 бит
Тип развёртки : Прогрессивная
Бит/(Пиксели*Кадры) : 0.183
Размер потока : 636 Мбайт (82%)
Библиотека кодирования : x264 core 112 r1834 a51816a
Настройки программы : cabac=1 / ref=1 / deblock=1:0:0 / analyse=0x3:0x113 / me=hex / subme=7 / psy=1 / psy_rd=1.00:0.00 / mixed_ref=0 / me_range=16 / chroma_me=1 / trellis=1 / 8x8dct=1 / cqm=0 / deadzone=21,11 / fast_pskip=1 / chroma_qp_offset=-2 / threads=6 / sliced_threads=0 / nr=0 / decimate=1 / interlaced=0 / constrained_intra=0 / bframes=3 / b_pyramid=2 / b_adapt=1 / b_bias=0 / direct=1 / weightb=1 / open_gop=0 / weightp=2 / keyint=250 / keyint_min=25 / scenecut=40 / intra_refresh=0 / rc_lookahead=40 / rc=2pass / mbtree=1 / bitrate=4041 / ratetol=1.0 / qcomp=0.60 / qpmin=0 / qpmax=51 / qpstep=4 / cplxblur=20.0 / qblur=0.5 / ip_ratio=1.40 / aq=1:1.00

Аудио #1
Идентификатор : 2
Формат : AC-3
Формат/Информация : Audio Coding 3
Расширение режима : CM (complete main)
Идентификатор кодека : A_AC3
Продолжительность : 22 м.
Вид битрейта : Постоянный
Битрейт : 384 Кбит/сек
Каналы : 2 канала
Расположение каналов : Front: L R
Частота : 44,1 КГц
Битовая глубина : 16 бит
Метод сжатия : С потерями
Размер потока : 61,9 Мбайт (8%)

Аудио #2
Идентификатор : 3
Формат : AC-3
Формат/Информация : Audio Coding 3
Расширение режима : CM (complete main)
Идентификатор кодека : A_AC3
Продолжительность : 22 м.
Вид битрейта : Постоянный
Битрейт : 384 Кбит/сек
Каналы : 2 канала
Расположение каналов : Front: L R
Частота : 48,0 КГц
Битовая глубина : 16 бит
Метод сжатия : С потерями
Размер потока : 61,9 Мбайт (8%)



Релиз от:



   Похожие торренты   Торрент   Размер 
В этой теме нет новых непрочитанных сообщений. Город Хищниц / Cougar Town [S03] (2012) WEB-DL 720p | LostFilm | P

0 | 2

10.07 ГБ

В этой теме нет новых непрочитанных сообщений. Город Хищниц / Cougar Town [S04] (2013) WEB-DLRip | LostFilm

21 | 2

4.66 ГБ

В этой теме нет новых непрочитанных сообщений. Город хищниц / Cougar Town [S01-04] (2009-2013) WEB-DLRip | LostFilm

0 | 2

21.65 ГБ

В этой теме нет новых непрочитанных сообщений. Город хищниц / Cougar Town [S02] (2010-2011) WEB-DLRip 720p от LostFilm

3 | 4

15.41 ГБ

В этой теме нет новых непрочитанных сообщений. Город Хищниц / Cougar Town [S05] (2014) WEB-DLRip | LostFilm

80 | 72

4.1 ГБ

В этой теме нет новых непрочитанных сообщений. Город Хищниц / Cougar Town [S02] (2010) WEB-DLRip | LostFilm

0 | 3

6.19 ГБ

В этой теме нет новых непрочитанных сообщений. Город Хищниц / Cougar Town [S01] (2009) WEB-DLRip | LostFilm

37 | 11

6.3 ГБ




Вы не можете начинать темы
Вы не можете отвечать на сообщения
Вы не можете редактировать свои сообщения
Вы не можете удалять свои сообщения
Вы не можете добавлять вложения

Перейти:  
Для Мосгорсуда, Роскомнадзора и рекламодателей: mosgorsud-torrent[собачка]yandex.ru
 Вход
ppkBB3cker v.2 © 2008-2014 @ PPK
[ Time : 0.519s | 14 Queries | GZIP : Off ]

Торрент трекер RUTOR.IN, Не можете зайти на rutor.org? Какой новый адрес рутор? Какое зеркало рутор? Не работает rutor.org и зеркала? Тогда наш торрент специально для вас. Rutor.in неофициальное зеркало rutor. В случае если у Вас заблокирован rutor или вдруг Вы не можете на него зайти, то Вы без труда сможете скачать бесплатно и без рекламы последние новинки кино, игр, сериалов и прочего у нас, на Rutor.in. Не нужно использовать прокси, чтобы зайти на рутор, достаточно воспользоваться нашим ресурсом. Все новые фильмы, игры, сериалы, книги и музыка за 2013 и 2014 годы через торрент бесплатно. Скачивайте фильмы в хорошем качестве, игры для пк, xbox, playstation без регистрации. У нас вы найдете новые Зарубежные сериалы и Русские сериалы 2013, 2014, 2015 годов. Оставайтесь с нами, качайте любимые фильмы, игры, сериалы, книги и музыку.