img image001 image001 image001 image001 image001 image001 image001 image001 image001 image001 image001 image001 image001 image001 image001

Planets Sun Sun Sun
Статистика раздачи
Автор: Снежана | Размер: 8.29 ГБ | Добавлен: 26 июл 2013
Раздают: 58    Качают: 8
Скачать торрент
Скачать торрент
Описание торрента

СообщениеДобавлено: 26 июл 2013 

#77

Название: Спартак: Война проклятых
Оригинальное название: Spartacus: War of the Damned
Год выпуска: 2013
Жанр: Историческая драма, Древний Рим, гладиаторы, боевик
Субтитры: Нет
Режиссер: Марк Бисли
Сценарий: Стивен С. ДеНайт, Брент Флетчер, Аарон Хелбинг
В ролях: Лиам МакИнтайр, Ману Беннетт, Ричард Нортон, Дастин Клер, Дэниэл Фьюрриджел, Синтия Аддай-Робинсон, Саймон Меррелс, Эллен Холлман, Дитч Дэвей, Пена Хема Тейлор и другие.

Описание: К восстанию Спартака присоединились тысячи. Вместе с Криксом и Ганником он побеждает одного римского командира за другим. Отчаявшись, Рим обращается за помощью к богатому, амбициозному Марку Крассу и молодому Юлию Цезарю.

Страна: США, Starz Media, Starz Productions
Продолжительность: 10 x ~ 00:49:00
Перевод: Профессиональный (многоголосый, закадровый) - LostFilm


Качество: HDTVRip-AVC
Формат: MPEG-4
Аудио кодек: AC3
Видео: AVC, ~ 1750 Кбит/с, 1024x576, 23,976 кадра/сек
Аудио rus: 2 ch, 384 Кбит/с, 48,0 КГц

Семпл

Полное имя: M:Spartacus.War.of.the.Damned.s03.AVC.tahiy.Spartacus.War.of.the.Damned.s03e01.AVC.tahiy.mkv
Формат : Matroska
Версия формата : Version 2
Размер файла : 778 Мбайт
Продолжительность : 50 м.
Общий поток : 2136 Кбит/сек
Название фильма : - = Rip by tahiy = -
Дата кодирования : UTC 2013-03-21 16:43:42
Программа кодирования : mkvmerge v4.0.0 ('The Stars were mine') сборка от Jun 6 2010 16:18:42
Библиотека кодирования : libebml v1.0.0 + libmatroska v1.0.0

Видео
Идентификатор : 1
Формат : AVC
Формат/Информация : Advanced Video Codec
Профиль формата : High@L4.1
Параметр CABAC формата : Да
Параметр ReFrames формата : 8 кадров
Идентификатор кодека : V_MPEG4/ISO/AVC
Продолжительность : 50 м.
Битрейт : 1750 Кбит/сек
Ширина : 1024 пикселя
Высота : 576 пикселей
Соотношение сторон : 16:9
Частота кадров : 23,976 кадра/сек
Цветовое пространство : YUV
Субдискретизация насыщенности : 4:2:0
Битовая глубина : 8 бит
Размер потока : 623 Мбайт (80%)
Заголовок : - = Rip by tahiy = -
Библиотека кодирования : x264 core 129 r2245 bc13772
Настройки программы : cabac=1 / ref=8 / deblock=1:-2:-1 / analyse=0x3:0x133 / me=hex / subme=9 / psy=1 / psy_rd=1.00:0.20 / mixed_ref=1 / me_range=16 / chroma_me=1 / trellis=2 / 8x8dct=1 / cqm=0 / deadzone=21,11 / fast_pskip=0 / chroma_qp_offset=-3 / threads=3 / lookahead_threads=1 / sliced_threads=0 / nr=0 / decimate=1 / interlaced=0 / bluray_compat=0 / constrained_intra=0 / bframes=3 / b_pyramid=2 / b_adapt=1 / b_bias=0 / direct=3 / weightb=1 / open_gop=0 / weightp=2 / keyint=240 / keyint_min=23 / scenecut=40 / intra_refresh=0 / rc_lookahead=40 / rc=2pass / mbtree=1 / bitrate=1750 / ratetol=1.0 / qcomp=0.60 / qpmin=10 / qpmax=51 / qpstep=4 / cplxblur=20.0 / qblur=0.5 / ip_ratio=1.40 / aq=1:1.00
Язык : English
Default : Да
Forced : Да

Аудио
Идентификатор : 2
Формат : AC-3
Формат/Информация : Audio Coding 3
Расширение режима : CM (complete main)
Идентификатор кодека : A_AC3
Продолжительность : 50 м.
Вид битрейта : Постоянный
Битрейт : 384 Кбит/сек
Каналы : 2 канала
Расположение каналов : Front: L R
Частота : 48,0 КГц
Битовая глубина : 16 бит
Метод сжатия : С потерями
Размер потока : 140 Мбайт (18%)
Язык : Russian
Default : Да
Forced : Да

01. Враги Рима / Enemies of Rome
02. Волки у ворот / Wolves at the Gate
03. Люди чести / Men of Honor
04. Децимация / Decimation
05. Братья по крови / Blood Brothers
06. Военные трофеи / Spoils of War
07. Непристойная смерть / Mors Idecepta
08. Пути расходятся / Separate Paths
09. Мёртвые и умирающие / The Dead and the Dying
10. Победа / Victory





Релиз от:



   Похожие торренты   Торрент   Размер 
В этой теме нет новых непрочитанных сообщений. Спартак: Война проклятых / Spartacus: War of the Damned [S03] (2013) HDTVRip | LostFilm

588 | 46

6.84 ГБ

В этой теме нет новых непрочитанных сообщений. Спартак: Война проклятых / Spartacus: War of the Damned [S03] (2013) HDTVRip от Generalfilm | КПК | LostFilm

57 | 9

2.45 ГБ

В этой теме нет новых непрочитанных сообщений. Спартак: Война проклятых / Spartacus: War of the Damned [S03] (2013) HDTVRip от Scarabey | LostFilm

25 | 6

7.22 ГБ

В этой теме нет новых непрочитанных сообщений. Спартак: Война проклятых / Spartacus: War of the Damned [S03] (2013) HDTVRip от Scarabey | LostFilm

75 | 5

3.83 ГБ

В этой теме нет новых непрочитанных сообщений. Спартак: Война проклятых / Spartacus: War of the Damned [S03] (2013) HDTVRip 720p | LostFilm

97 | 17

18.67 ГБ

В этой теме нет новых непрочитанных сообщений. Спартак: Война проклятых / Spartacus: War of the Damned [S03] (2013) HDTVRip от Scarabey | LostFilm

21 | 7

9.26 ГБ

В этой теме нет новых непрочитанных сообщений. Спартак: Война проклятых / Spartacus: War of the Damned [03х01] (2013) HDTVRip-AVC от Stalker oK | LostFilm

4 | 9

570.22 МБ




Вы не можете начинать темы
Вы не можете отвечать на сообщения
Вы не можете редактировать свои сообщения
Вы не можете удалять свои сообщения
Вы не можете добавлять вложения

Перейти:  
Для Мосгорсуда, Роскомнадзора и рекламодателей: mosgorsud-torrent[собачка]yandex.ru
 Вход
ppkBB3cker v.2 © 2008-2014 @ PPK
[ Time : 0.131s | 14 Queries | GZIP : Off ]

Торрент трекер RUTOR.IN, Не можете зайти на rutor.org? Какой новый адрес рутор? Какое зеркало рутор? Не работает rutor.org и зеркала? Тогда наш торрент специально для вас. Rutor.in неофициальное зеркало rutor. В случае если у Вас заблокирован rutor или вдруг Вы не можете на него зайти, то Вы без труда сможете скачать бесплатно и без рекламы последние новинки кино, игр, сериалов и прочего у нас, на Rutor.in. Не нужно использовать прокси, чтобы зайти на рутор, достаточно воспользоваться нашим ресурсом. Все новые фильмы, игры, сериалы, книги и музыка за 2013 и 2014 годы через торрент бесплатно. Скачивайте фильмы в хорошем качестве, игры для пк, xbox, playstation без регистрации. У нас вы найдете новые Зарубежные сериалы и Русские сериалы 2013, 2014, 2015 годов. Оставайтесь с нами, качайте любимые фильмы, игры, сериалы, книги и музыку.