img image001 image001 image001 image001 image001 image001 image001 image001 image001 image001 image001 image001 image001 image001 image001

Planets Sun Sun Sun
Статистика раздачи
Автор: Снежана | Размер: 2.45 ГБ | Добавлен: 25 июл 2013
Раздают: 57    Качают: 9
Скачать торрент
Скачать торрент
Описание торрента

СообщениеДобавлено: 25 июл 2013 

#77

Информация о фильме
Название: Спартак: Война проклятых
Оригинальное название: Spartacus: War of the Damned
Год выхода: 2013
Жанр: Историческая драма
Режиссер: Майкл Херст
В ролях: Лиам МакИнтайр, Ману Беннет, Дастин Клер, Дэниэл Фьюрриджел, Тодд Ласанс, Саймон Меррелс, Синтия Аддай-Робинсон, Эллен Холлман и другие

О фильме:
К восстанию Спартака присоединились тысячи. Вместе с Криксом и Ганником он побеждает одного римского командира за другим. Отчаявшись, Рим обращается за помощью к богатому, амбициозному Марку Крассу и молодому Юлию Цезарю.

Страна: США
Продолжительность: 10 х ~00:50:00
Перевод: Профессиональный многоголосый закадровый [LostFilm]

Файл
Формат: MP4
Качество: HDTVRip | КПК
Видео: MPEG-4 AVC (x264), 640x360, ~500 kbps, 23.976 fps
Аудио: AAC LC, 48.0 KHz, 2 ch, 128 Kbps
Субтитры: Нет

Раздача ведется путем добавления новых серий. 16.04.2013 добавлена 10-серия. Конец сезона...

Внимание! Сериал содержит сцены насилия и сексуального характера, не рекомендуется к просмотру лицам до 18 лет.


Семпл


Format : MPEG-4
Format profile : Base Media
Codec ID : isom
File size : 242 MiB
Duration : 53mn 43s
Overall bit rate mode : Variable
Overall bit rate : 630 Kbps
Encoded date : UTC 2013-03-22 11:00:46
Tagged date : UTC 2013-03-22 11:00:46
Video #1
ID : 1
Format : AVC
Format/Info : Advanced Video Codec
Format profile : Baseline@L4.1
Format settings, CABAC : No
Format settings, ReFrames : 6 frames
Codec ID : avc1
Codec ID/Info : Advanced Video Coding
Duration : 53mn 43s
Bit rate : 500 Kbps
Maximum bit rate : 2 285 Kbps
Width : 640 pixels
Height : 360 pixels
Display aspect ratio : 16:9
Frame rate mode : Constant
Frame rate : 23.976 fps
Color space : YUV
Chroma subsampling : 4:2:0
Bit depth : 8 bits
Scan type : Progressive
Bits/(Pixel*Frame) : 0.091
Stream size : 192 MiB (79%)
Writing library : x264 core 116 r2074 2641b9e
Encoding settings : cabac=0 / ref=6 / deblock=1:-1:-1 / analyse=0x1:0x111 / me=umh / subme=7 / psy=1 / psy_rd=1.00:0.00 / mixed_ref=0 / me_range=16 / chroma_me=1 / trellis=1 / 8x8dct=0 / cqm=0 / deadzone=21,11 / fast_pskip=0 / chroma_qp_offset=-2 / threads=3 / sliced_threads=0 / nr=0 / decimate=1 / interlaced=0 / bluray_compat=0 / constrained_intra=0 / bframes=0 / weightp=0 / keyint=250 / keyint_min=23 / scenecut=40 / intra_refresh=0 / rc_lookahead=60 / rc=2pass / mbtree=1 / bitrate=500 / ratetol=1.0 / qcomp=0.60 / qpmin=0 / qpmax=69 / qpstep=4 / cplxblur=20.0 / qblur=0.5 / ip_ratio=1.40 / aq=1:1.00
Encoded date : UTC 2013-03-22 11:00:46
Tagged date : UTC 2013-03-22 11:01:00
Audio #2
ID : 2
Format : AAC
Format/Info : Advanced Audio Codec
Format profile : LC
Codec ID : 40
Duration : 53mn 43s
Bit rate mode : Variable
Bit rate : 128 Kbps
Maximum bit rate : 147 Kbps
Channel(s) : 2 channels
Channel positions : Front: L R
Sampling rate : 48.0 KHz
Compression mode : Lossy
Stream size : 49.1 MiB (20%)
Encoded date : UTC 2013-03-22 11:00:55
Tagged date : UTC 2013-03-22 11:01:00

Релиз от:



   Похожие торренты   Торрент   Размер 
В этой теме нет новых непрочитанных сообщений. Спартак: Война проклятых / Spartacus: War of the Damned [S03] (2013) HDTVRip | LostFilm

588 | 46

6.84 ГБ

В этой теме нет новых непрочитанных сообщений. Спартак: Война проклятых / Spartacus: War of the Damned [S03] (2013) HDTVRip-AVC | LostFilm

58 | 8

8.29 ГБ

В этой теме нет новых непрочитанных сообщений. Спартак: Война проклятых / Spartacus: War of the Damned [S03] (2013) HDTVRip от Scarabey | LostFilm

25 | 6

7.22 ГБ

В этой теме нет новых непрочитанных сообщений. Спартак: Война проклятых / Spartacus: War of the Damned [S03] (2013) HDTVRip от Scarabey | LostFilm

21 | 7

9.26 ГБ

В этой теме нет новых непрочитанных сообщений. Спартак: Война проклятых / Spartacus: War of the Damned [S03] (2013) HDTVRip от Scarabey | LostFilm

75 | 5

3.83 ГБ

В этой теме нет новых непрочитанных сообщений. Спартак: Война проклятых / Spartacus: War of the Damned [S03] (2013) HDTVRip 720p | LostFilm

97 | 17

18.67 ГБ

В этой теме нет новых непрочитанных сообщений. Спартак: Война проклятых / Spartacus: War of the Damned [03х01] (2013) HDTVRip-AVC от Stalker oK | LostFilm

4 | 9

570.22 МБ




Вы не можете начинать темы
Вы не можете отвечать на сообщения
Вы не можете редактировать свои сообщения
Вы не можете удалять свои сообщения
Вы не можете добавлять вложения

Перейти:  
Для Мосгорсуда, Роскомнадзора и рекламодателей: mosgorsud-torrent[собачка]yandex.ru
 Вход
ppkBB3cker v.2 © 2008-2014 @ PPK
[ Time : 0.057s | 14 Queries | GZIP : On ]

Торрент трекер RUTOR.IN, Не можете зайти на rutor.org? Какой новый адрес рутор? Какое зеркало рутор? Не работает rutor.org и зеркала? Тогда наш торрент специально для вас. Rutor.in неофициальное зеркало rutor. В случае если у Вас заблокирован rutor или вдруг Вы не можете на него зайти, то Вы без труда сможете скачать бесплатно и без рекламы последние новинки кино, игр, сериалов и прочего у нас, на Rutor.in. Не нужно использовать прокси, чтобы зайти на рутор, достаточно воспользоваться нашим ресурсом. Все новые фильмы, игры, сериалы, книги и музыка за 2013 и 2014 годы через торрент бесплатно. Скачивайте фильмы в хорошем качестве, игры для пк, xbox, playstation без регистрации. У нас вы найдете новые Зарубежные сериалы и Русские сериалы 2013, 2014, 2015 годов. Оставайтесь с нами, качайте любимые фильмы, игры, сериалы, книги и музыку.