img image001 image001 image001 image001 image001 image001 image001 image001 image001 image001 image001 image001 image001 image001 image001 image001

Planets Sun Sun Sun
Статистика раздачи
Автор: Снежана | Размер: 4.66 ГБ | Добавлен: 25 июл 2013
Раздают: 21    Качают: 2
Скачать торрент
Скачать торрент
Описание торрента

СообщениеДобавлено: 25 июл 2013 

#77

Название: Город Хищниц
Оригинальное название: Cougar Town
Год выпуска: 2013
Страна: США
Жанр: комедия
Продолжительность: 15 х ~ 00:22:00
Перевод: Профессиональный (многоголосый закадровый) - LostFilm
Субтитры: нет
Режиссер: Билл Лоуренс, Кевин Бигель

В ролях: Кортни Кокс, Криста Миллер, Бизи Филиппс, Брайан Ван Холт, Джош Хопкинс, Иэн Гомес, Дэн Берд, Скот Фоли и др.

Описание: Сериал Cougar Town рассказывает о недавно разведенной 40-летней Джулс Кобб и ее сыне-подростке Трэвисе, живущих в небольшом городке в штате Флорида. Этот город можно охарактеризовать одним словом – Cougars. Это и название популярной футбольной команды местной школы, и … немалое количество разведенных женщин среднего возраста, ищущих парней помоложе, чтобы скрасить свой досуг. Джулс не хочет стать похожей на них, но после прошедшего развода и своих немолодых лет она хочет большего для своей личной жизни. С помощью лучшей подруги Элли и коллеги по работе Лори она пытается вспомнить, как же это – ходить на свидания и знакомиться с мужчинами.



Качество: WEB-DLRip
Формат: AVI
Видео: XviD, 1915 Кбит/с, 720x400
Аудио: MP3, 2 ch, 192 Кбит/с

Добавлена 14-ая и 15-ая серии. Сезон полностью.

01. Тоскливое воскресенье / Blue Sunday
02. Я хочу знать / I Need to Know
03. Между двух миров / Between Two Worlds
04. I Should Have Known It
05. Бегом к мечте / Runnin' Down a Dream
06. Бессонница / Restless
07. Флиртуя со временем / Flirting with Time
08. Мы с тобой ещё встретимся / You and I Will Meet Again
09. Сделай лучше / Make It Better
10. Ты мне скажи / You Tell Me
11. Спасительная благодать / Saving Grace
12. Этот старый городок / This Old Town
13. Преступный умысел / The Criminal Mind
14. Не забывайся / Don't Fade on Me
15. С любовью - на край света / Have Love Will Travel
Формат : AVI
Формат/Информация : Audio Video Interleave
Размер файла : 341 Мбайт
Продолжительность : 22 м.
Общий поток : 2116 Кбит/сек
Программа кодирования : Nandub v1.0rc2
Библиотека кодирования : Nandub build 1853/release

Видео
Идентификатор : 0
Формат : MPEG-4 Visual
Профиль формата : Simple@L3
Параметр BVOP формата : Нет
Параметр QPel формата : Нет
Параметр GMC формата : Без точки перехода
Параметр матрицы формата : Default (H.263)
Идентификатор кодека : XVID
Идентификатор кодека/Подсказка : XviD
Продолжительность : 22 м.
Битрейт : 1915 Кбит/сек
Ширина : 720 пикс.
Высота : 400 пикс.
Соотношение сторон : 16:9
Частота кадров : 23,976 кадр/сек
Цветовое пространство : YUV
Подвыборка цветности : 4:2:0
Битовая глубина : 8 бит
Тип развёртки : Прогрессивная
Метод сжатия : С потерями
Бит/(Пиксели*Кадры) : 0.277
Размер потока : 308 Мбайт (90%)
Библиотека кодирования : XviD 1.2.1 (UTC 2008-12-04)

Аудио
Идентификатор : 1
Формат : MPEG Audio
Версия формата : Version 1
Профиль формата : Layer 3
Режим : Joint stereo
Расширение режима : MS Stereo
Идентификатор кодека : 55
Идентификатор кодека/Подсказка : MP3
Продолжительность : 22 м.
Вид битрейта : Переменный
Битрейт : 192 Кбит/сек
Каналы : 2 канала
Частота : 48,0 КГц
Метод сжатия : С потерями
Размер потока : 30,3 Мбайт (9%)
Выравнивание : Соединение по промежуткам
Продолжительность промежутка : 24 мс. (0,58 видеокадр)
Время предзагрузки промежутка : 491 ms
Библиотека кодирования : LAME3.97b
Настройки программы : -m j -V 4 -q 3 -lowpass 18.6 --abr 192



Релиз от:



   Похожие торренты   Торрент   Размер 
В этой теме нет новых непрочитанных сообщений. Город хищниц / Cougar Town [S01-04] (2009-2013) WEB-DLRip | LostFilm

0 | 2

21.65 ГБ

В этой теме нет новых непрочитанных сообщений. Город Хищниц / Cougar Town [S02] (2010) WEB-DLRip | LostFilm

0 | 3

6.19 ГБ

В этой теме нет новых непрочитанных сообщений. Город Хищниц / Cougar Town [S05] (2014) WEB-DLRip | LostFilm

80 | 72

4.1 ГБ

В этой теме нет новых непрочитанных сообщений. Город Хищниц / Cougar Town [S01] (2009) WEB-DLRip | LostFilm

37 | 11

6.3 ГБ

В этой теме нет новых непрочитанных сообщений. Город хищниц / Cougar Town [S01-05] (2009-2014) WEB-DLRip | LostFilm

10 | 33

25.75 ГБ

В этой теме нет новых непрочитанных сообщений. Город Хищниц / Cougar Town [05х01-08] (2014) WEB-DLRip | LostFilm

20 | 29

2.54 ГБ

В этой теме нет новых непрочитанных сообщений. Город хищниц / Cougar Town [S01-06] (2009-2015) WEB-DLRip | LostFilm

23 | 111

29.77 ГБ




Вы не можете начинать темы
Вы не можете отвечать на сообщения
Вы не можете редактировать свои сообщения
Вы не можете удалять свои сообщения
Вы не можете добавлять вложения

Перейти:  
 Вход
ppkBB3cker v.2 © 2008-2014 @ PPK
[ Time : 0.037s | 15 Queries | GZIP : Off ]

cron