img image001 image001 image001 image001 image001 image001 image001 image001 image001 image001 image001 image001 image001 image001 image001

Planets Sun Sun Sun
Статистика раздачи
Автор: Снежана | Размер: 2.47 ГБ | Добавлен: 25 июл 2013
Раздают: 77    Качают: 12
Скачать торрент
Скачать торрент
Описание торрента

СообщениеДобавлено: 25 июл 2013 

#77

Информация о фильме
Название: Игра Престолов
Оригинальное название: Game of Thrones
Год выхода: 2011
Жанр: Фэнтези, драма
Режиссер: Томас Маккарти
В ролях: Гарри Лойд, Марк Адди, Алфи Аллен, Син Бин, Эмилиа Кларк, Николас Костер-Валдау, Мишель Ферли, Кит Гаррингтон

О фильме:
Игра престолов» - сериал в жанре фэнтези по мотивам цикла романов «Песнь льда и пламени» писателя Джорджа Мартина. К показу планируется в апреле 2011 года. Каждому сезону соответствует одна книга семикнижия, из которых на данный момент написаны четыре. Это эпическая борьба за власть, происходящая в огромном неистовом фэнтезийном королевстве



01. Зима Близко (Winter is coming)
02. Королевский Тракт (The Kingsroad)
03. Лорд Сноу (Lord Snow)
04. Калеки, бастарды и сломанные вещи (Cripples, Bastards, and Broken Things)
05. Волк и Лев (The Wolf and the Lion)
06. Золотая корона (A Golden Crown)
07. Ты побеждаешь или погибаешь (You Win or You Die)
08. Острый конец (The Pointy End)
09. Бейелор (Baelor)
10. Пламя и кровь (Fire and Blood)

Страна: США
Студия: НВО
Продолжительность: 10 x ~ 01:00:00
Перевод: Дублированный [РЕН-ТВ]

Файл
Формат: MP4
Качество: HDRip | КПК
Видео: MPEG-4 AVC (x264), 640x360, ~500 kbps, 23.976 fps
Аудио: AAC LC, 48.0 KHz, 2 ch, 128 Kbps
Субтитры: Нет

Семпл


K:киноIgra.Prestolov.Sezon1.2011.AVC.HDRip.KPK.GeneralfilmIgra.Prestolov.s01e01.2011.AVC.HDRip.KPK.Generalfilm.mp4
Format : MPEG-4
Format profile : Base Media
Codec ID : isom
File size : 278 MiB
Duration : 1h 1mn
Overall bit rate mode : Variable
Overall bit rate : 631 Kbps
Encoded date : UTC 2013-04-11 07:56:46
Tagged date : UTC 2013-04-11 07:56:46
Video #1
ID : 1
Format : AVC
Format/Info : Advanced Video Codec
Format profile : Baseline@L4.1
Format settings, CABAC : No
Format settings, ReFrames : 6 frames
Codec ID : avc1
Codec ID/Info : Advanced Video Coding
Duration : 1h 1mn
Bit rate : 500 Kbps
Maximum bit rate : 8 044 Kbps
Width : 640 pixels
Height : 360 pixels
Display aspect ratio : 16:9
Frame rate mode : Constant
Frame rate : 23.976 fps
Color space : YUV
Chroma subsampling : 4:2:0
Bit depth : 8 bits
Scan type : Progressive
Bits/(Pixel*Frame) : 0.091
Stream size : 220 MiB (79%)
Writing library : x264 core 119 r2106 07efeb4
Encoding settings : cabac=0 / ref=6 / deblock=1:-1:-1 / analyse=0x1:0x111 / me=umh / subme=7 / psy=1 / psy_rd=1.00:0.00 / mixed_ref=0 / me_range=16 / chroma_me=1 / trellis=1 / 8x8dct=0 / cqm=0 / deadzone=21,11 / fast_pskip=0 / chroma_qp_offset=-2 / threads=3 / sliced_threads=0 / nr=0 / decimate=1 / interlaced=0 / bluray_compat=0 / constrained_intra=0 / bframes=0 / weightp=0 / keyint=250 / keyint_min=23 / scenecut=40 / intra_refresh=0 / rc_lookahead=60 / rc=2pass / mbtree=1 / bitrate=500 / ratetol=1.0 / qcomp=0.60 / qpmin=0 / qpmax=69 / qpstep=4 / cplxblur=20.0 / qblur=0.5 / ip_ratio=1.40 / aq=1:1.00
Encoded date : UTC 2013-04-11 07:56:46
Tagged date : UTC 2013-04-11 07:57:31
Audio #2
ID : 2
Format : AAC
Format/Info : Advanced Audio Codec
Format profile : LC
Codec ID : 40
Duration : 1h 1mn
Bit rate mode : Variable
Bit rate : 128 Kbps
Maximum bit rate : 141 Kbps
Channel(s) : 2 channels
Channel positions : Front: L R
Sampling rate : 48.0 KHz
Compression mode : Lossy
Stream size : 56.4 MiB (20%)
Encoded date : UTC 2013-04-11 07:57:24
Tagged date : UTC 2013-04-11 07:57:31

Релиз от:



   Похожие торренты   Торрент   Размер 
В этой теме нет новых непрочитанных сообщений. Игра престолов / Game of Thrones [S02] (2012) HDRip от Generalfilm | КПК | LostFilm

67 | 26

2.4 ГБ

В этой теме нет новых непрочитанных сообщений. Игра престолов / Game of Thrones [S01] (2011) HDRip от Scarabey l LostFilm

832 | 690

7.99 ГБ

В этой теме нет новых непрочитанных сообщений. Игра престолов / Game of Thrones [S03] (2013) WEB-DLRip от Generalfilm | LostFilm | КПК

162 | 28

2.45 ГБ

В этой теме нет новых непрочитанных сообщений. Игра престолов / Game of Thrones [S01] (2011) BDRip

125 | 52

10.82 ГБ

В этой теме нет новых непрочитанных сообщений. Игра Престолов / Game of Thrones [S01] (2011) BDRip | КПК

101 | 63

2.11 ГБ

В этой теме нет новых непрочитанных сообщений. Игра престолов / Game of Thrones [S01] (2011) HDTVRip от HQ-ViDEO

286 | 705

11.76 ГБ

В этой теме нет новых непрочитанных сообщений. Игра престолов / Game of Thrones [S01] (2011) HDTVRip 1080р

337 | 99

47.82 ГБ




Вы не можете начинать темы
Вы не можете отвечать на сообщения
Вы не можете редактировать свои сообщения
Вы не можете удалять свои сообщения
Вы не можете добавлять вложения

Перейти:  
Для Мосгорсуда, Роскомнадзора и рекламодателей: mosgorsud-torrent[собачка]yandex.ru
 Вход
ppkBB3cker v.2 © 2008-2014 @ PPK
[ Time : 0.082s | 15 Queries | GZIP : Off ]

Торрент трекер RUTOR.IN, Не можете зайти на rutor.org? Какой новый адрес рутор? Какое зеркало рутор? Не работает rutor.org и зеркала? Тогда наш торрент специально для вас. Rutor.in неофициальное зеркало rutor. В случае если у Вас заблокирован rutor или вдруг Вы не можете на него зайти, то Вы без труда сможете скачать бесплатно и без рекламы последние новинки кино, игр, сериалов и прочего у нас, на Rutor.in. Не нужно использовать прокси, чтобы зайти на рутор, достаточно воспользоваться нашим ресурсом. Все новые фильмы, игры, сериалы, книги и музыка за 2013 и 2014 годы через торрент бесплатно. Скачивайте фильмы в хорошем качестве, игры для пк, xbox, playstation без регистрации. У нас вы найдете новые Зарубежные сериалы и Русские сериалы 2013, 2014, 2015 годов. Оставайтесь с нами, качайте любимые фильмы, игры, сериалы, книги и музыку.