img image001 image001 image001 image001 image001 image001 image001 image001 image001 image001 image001 image001 image001 image001 image001

Planets Sun Sun Sun
Статистика раздачи
Автор: Снежана | Размер: 2.77 ГБ | Добавлен: 25 июл 2013
Раздают: 166    Качают: 6
Скачать торрент
Скачать торрент
Описание торрента

СообщениеДобавлено: 25 июл 2013 

#77
Год выпуска: 2011
Производство: Россия / «Студия 2-Б-2 интертэйнмент» по заказу телеканала «Россия»
Жанр: драма, история
Продолжительность: 00:54:42+00:56:18+00:57:19+00:52:30
Субтитры: нет

Режиссер: Владимир Бортко

В ролях: Александр Балуев, Сергей Маковецкий, Сергей Шакуров, Александр Филиппенко, Елизавета Боярская, Михаил Боярский, Анна Ковальчук, Ирина Розанова, Александр Баширов, Валерий Соловьев, Валерий Гришко, Максим Радугин, Игорь Головин, Людмила Шевель, Владимир Матвеев, Галина Жданова...

Описание: По мотивам романа Даниила Гранина «Вечера с Петром Великим». Зима 1721 года, Санкт-Петербург. Перешагнувший порог пятидесятилетия русский царь Петр Алексеевич во время экзекуции над очередным недобросовестным исполнителем своей воли встречает двадцатилетнюю дочь союзника в войне с турками, молдавского господаря Дмитрия Кантемира Марию, которую знал когда-то еще маленькой девочкой. За плечами у пожилого императора создание российского флота, реформа армии, учреждение Сената и Синода, другие грандиозные преобразования, им было одержано много славных побед над врагами России, он женат на Марте Скавронской, которая скоро должна стать императрицей Екатериной I. Несмотря на все это, самодержец российский, государственный муж, полководец и реформатор влюбился в Марию, которая была моложе его на тридцать лет. Через полгода Петр отправится в Каспийский поход, в котором сопровождать его будут и Екатерина, и Мария. Во время этого похода станет известно, что молдавская княжна носит под сердцем ребенка, отец которого – царь Петр Великий. Мария получит все шансы стать новой императрицей, чего, конечно же, не могут допустить ни царица, ни ее приближенные.





Источник: 2xDVD9 R5
Тип релиза: DVDRip
Контейнер: AVI

Видео: 688x384 (16:9), 25.000 fps, XVID ~1340 kbps avg, 0.203 bit/pixel
Аудио : 48 kHz, AC3, 6 ch, 448.00 kbps Constant

Раздача от:
Общее
Полное имя : Petr.Pervyi.Zaveshanie.2011.O.DVDRip1.avi
Формат : AVI
Формат/Информация : Audio Video Interleave
Размер файла : 703 Мбайт
Продолжительность : 54 м.
Общий поток : 1796 Кбит/сек
Программа кодирования : VirtualDubMod 1.5.10.3 | www.virtualdub-fr.org || (build 2550/release)
Библиотека кодирования : VirtualDubMod build 2550/release

Видео
Идентификатор : 0
Формат : MPEG-4 Visual
Профиль формата : Advanced Simple@L5
Параметр BVOP формата : 1
Параметр QPel формата : Нет
Параметр GMC формата : Без точки перехода
Параметр матрицы формата : Выборочная
Идентификатор кодека : XVID
Идентификатор кодека/Подсказка : XviD
Продолжительность : 54 м.
Битрейт : 1338 Кбит/сек
Ширина : 688 пикс.
Высота : 384 пикс.
Соотношение сторон : 16:9
Частота кадров : 25,000 кадр/сек
Цветовое пространство : YUV
Подвыборка цветности : 4:2:0
Битовая глубина : 8 бит
Тип развёртки : Прогрессивная
Метод сжатия : С потерями
Бит/(Пиксели*Кадры) : 0.203
Размер потока : 524 Мбайт (75%)
Библиотека кодирования : XviD 1.2.1 (UTC 2008-12-04)

Аудио
Идентификатор : 1
Формат : AC-3
Формат/Информация : Audio Coding 3
Расширение режима : CM (complete main)
Идентификатор кодека : 2000
Продолжительность : 54 м.
Вид битрейта : Постоянный
Битрейт : 448 Кбит/сек
Каналы : 6 каналов
Расположение каналов : Front: L C R, Side: L R, LFE
Частота : 48,0 КГц
Битовая глубина : 16 бит
Метод сжатия : С потерями
Размер потока : 175 Мбайт (25%)
Выравнивание : Разделение по промежуткам
Продолжительность промежутка : 40 мс. (1,00 видеокадр)
Время предзагрузки промежутка : 500 ms





   Похожие торренты   Торрент   Размер 
В этой теме нет новых непрочитанных сообщений. Петр Первый. Завещание [01-04 из 04] (2011) DVDRip от SergV

0 | 1

3.05 ГБ

В этой теме нет новых непрочитанных сообщений. Петр Первый. Завещание [01-04 из 04] (2011) DVDRip-AVC | Лицензия от Zlofenix

138 | 10

2.75 ГБ

В этой теме нет новых непрочитанных сообщений. Петр Первый. Завещание [01-04 из 04] (2011) DVB

0 | 1

8.83 ГБ

В этой теме нет новых непрочитанных сообщений. Пётр Первый. Завещание [01-04 из 04] (2011) DVD9

55 | 3

7.81 ГБ

В этой теме нет новых непрочитанных сообщений. Петр Первый. Завещание [01-04 из 04] (2011) WEB-DLRip-AVC от ExKinoRay

278 | 25

2.54 ГБ

В этой теме нет новых непрочитанных сообщений. Петр Первый. Завещание [01-04 из 04] (2011) WEB-DL 1080p от MediaClub

313 | 208

6.48 ГБ

В этой теме нет новых непрочитанных сообщений. Петр Первый (1937) DVDRip

302 | 17

2.02 ГБ




Вы не можете начинать темы
Вы не можете отвечать на сообщения
Вы не можете редактировать свои сообщения
Вы не можете удалять свои сообщения
Вы не можете добавлять вложения

Перейти:  
Для Мосгорсуда, Роскомнадзора и рекламодателей: mosgorsud-torrent[собачка]yandex.ru
 Вход
ppkBB3cker v.2 © 2008-2014 @ PPK
[ Time : 0.042s | 15 Queries | GZIP : Off ]

Торрент трекер RUTOR.IN, Не можете зайти на rutor.org? Какой новый адрес рутор? Какое зеркало рутор? Не работает rutor.org и зеркала? Тогда наш торрент специально для вас. Rutor.in неофициальное зеркало rutor. В случае если у Вас заблокирован rutor или вдруг Вы не можете на него зайти, то Вы без труда сможете скачать бесплатно и без рекламы последние новинки кино, игр, сериалов и прочего у нас, на Rutor.in. Не нужно использовать прокси, чтобы зайти на рутор, достаточно воспользоваться нашим ресурсом. Все новые фильмы, игры, сериалы, книги и музыка за 2013 и 2014 годы через торрент бесплатно. Скачивайте фильмы в хорошем качестве, игры для пк, xbox, playstation без регистрации. У нас вы найдете новые Зарубежные сериалы и Русские сериалы 2013, 2014, 2015 годов. Оставайтесь с нами, качайте любимые фильмы, игры, сериалы, книги и музыку.
cron