img image001 image001 image001 image001 image001 image001 image001 image001 image001 image001 image001 image001 image001 image001 image001

Planets Sun Sun Sun
Статистика раздачи
Автор: Снежана | Размер: 1.5 ГБ | Добавлен: 25 июл 2013
Раздают: 0    Качают: 2
Скачать торрент
Скачать торрент
Описание торрента

СообщениеДобавлено: 25 июл 2013 

Год выпуска: 2013
Страна: США
Жанр: Ситком
Продолжительность:9х ~00:21:00
Перевод: Субтитры
Русские субтитры: Есть Notabenoid
Режиссёр: Тед Уасс, Том Херц
В ролях: Меган Прайс, Патрик Ворбёртон, Оливер Хадсон, Бьянка Кэйлич, Дэвид Спэйд, Адхир Кальян
Описание: «Правила совместной жизни» - это не документальный сериал, который раскрывает основные теоретические правила, которые нужно соблюдать при создании семьи, а умопомрачительная комедия, рассказывающая о различных фазах отношений, которые складываются при совместной жизни мужчины и женщины.

Главные герои сериала - обручённая пара Дженнифер и Адам, одинокий убежденный холостяк Рассел, а также давно женатая и вполне сложившаяся семья Джеф и Одри. Они живут в одном доме, и даже более того, на одной лестничной клетке. Общаясь между собой, они делятся впечатлениями, которые остаются от их совместной жизни со своими половинками. На их наглядном примере можно увидеть, что отношения между влюбленными часто походят на безумные гонки с препятствиями.

Каждый человек наверняка способен описать, что означает состоять в отношениях, вот только чтобы по-настоящему ощутить и понять, каково это, необходимо самому принять непосредственное участие в этих порой забавных, а порой и трагичных гонках.

07x01 - Liz Moves In
07x02 - Taking Names
07x03 - Cats & Dogs
07x04 - Cupcake готово
07x05 - Fountain of Youth
07x06 - Baby Talk
07x07 - Role Play
07x08 - Catering


Общее
Полное имя : C:UsersRomzec161DesktopФильмы, сериалыRules of Engagement (Season 7) [rus sub]�7x01 - Liz Moves In.mp4
Формат : MPEG-4
Профиль формата : Base Media
Идентификатор кодека : isom
Размер файла : 166 Мбайт
Продолжительность : 20 м.
Режим общего битрейта : Переменный
Общий поток : 1116 Кбит/сек
Дата кодирования : UTC 2013-02-04 03:22:30
Дата пометки : UTC 2013-02-04 03:22:30

Видео
Идентификатор : 1
Формат : AVC
Формат/Информация : Advanced Video Codec
Профиль формата : High@L3.1
Параметр CABAC формата : Да
Параметр ReFrames формата : 5 кадров
Идентификатор кодека : avc1
Идентификатор кодека/Информация : Advanced Video Coding
Продолжительность : 20 м.
Битрейт : 1004 Кбит/сек
Максимальный битрейт : 2687 Кбит/сек
Ширина : 720 пикселей
Высота : 406 пикселей
Соотношение сторон : 16:9
Режим частоты кадров : Постоянный
Частота кадров : 23,976 кадра/сек
Цветовое пространство : YUV
Субдискретизация насыщенности : 4:2:0
Битовая глубина : 8 бит
Тип развёртки : Прогрессивная
Бит/(Пиксели*Кадры) : 0.143
Размер потока : 149 Мбайт (90%)
Библиотека кодирования : x264 core 129 r2245 bc13772
Настройки программы : cabac=1 / ref=5 / deblock=1:0:0 / analyse=0x3:0x113 / me=umh / subme=8 / psy=1 / psy_rd=1.00:0.00 / mixed_ref=1 / me_range=16 / chroma_me=1 / trellis=1 / 8x8dct=1 / cqm=0 / deadzone=21,11 / fast_pskip=1 / chroma_qp_offset=-2 / threads=12 / lookahead_threads=2 / sliced_threads=0 / nr=0 / decimate=1 / interlaced=0 / bluray_compat=0 / constrained_intra=0 / bframes=3 / b_pyramid=2 / b_adapt=2 / b_bias=0 / direct=3 / weightb=1 / open_gop=0 / weightp=2 / keyint=250 / keyint_min=23 / scenecut=40 / intra_refresh=0 / rc_lookahead=50 / rc=crf / mbtree=1 / crf=19.0 / qcomp=0.60 / qpmin=0 / qpmax=69 / qpstep=4 / ip_ratio=1.40 / aq=1:1.00
Дата кодирования : UTC 2013-02-05 02:03:25
Дата пометки : UTC 2013-02-04 03:22:33
Коэффициенты матрицы : BT.709

Аудио
Идентификатор : 2
Формат : AAC
Формат/Информация : Advanced Audio Codec
Профиль формата : LC
Идентификатор кодека : 40
Продолжительность : 20 м.
Вид битрейта : Переменный
Битрейт : 108 Кбит/сек
Максимальный битрейт : 141 Кбит/сек
Каналы : 2 канала
Расположение каналов : Front: L R
Частота : 48,0 КГц
Метод сжатия : С потерями
Задержка видео : 83 мс.
Размер потока : 16,1 Мбайт (10%)
Дата кодирования : UTC 2013-02-04 03:22:32
Дата пометки : UTC 2013-02-04 03:22:33


Качество: HDTVRip-AVC
Формат: MP4
Видео кодек: AVC
Аудио кодек: AAC
Видео: AVC, 720x406 (16:9), 23.976 fps, ~1004 Kbps, ~0.143 bit/pixel
Аудио: AAC, 48.0 KHz, 2 ch, ~108 Кбит/с
Субтитры: Внешние (.srt)




   Похожие торренты   Торрент   Размер 
В этой теме нет новых непрочитанных сообщений. Правила совместной жизни / Rules of Engagement [S07] (2013) WEB-DLRip

3 | 5

3.17 ГБ

В этой теме нет новых непрочитанных сообщений. Правила совместной жизни / Rules of Engagement [06x01-02] (2011) HDTVRip | L1

0 | 2

377.71 МБ

В этой теме нет новых непрочитанных сообщений. Правила совместной жизни / Rules of Engagement [S01-07] (2007-2013) WEB-DLRip | P, L2

8 | 15

28.47 ГБ

В этой теме нет новых непрочитанных сообщений. Правила совместной жизни / Rules of Engagement [S07х01-13] (2013) WEB-DL 1080p | L2

3 | 2

11.11 ГБ

В этой теме нет новых непрочитанных сообщений. Правила совместной жизни / Rules of Engagement [S01-07] (2007-2013) WEB-DL 720p | P, L2

3 | 14

68.63 ГБ

В этой теме нет новых непрочитанных сообщений. Правила совместной жизни / Rules of Engagement [S04] (2010) WEB-DLRip | SET

2 | 2

3.18 ГБ

В этой теме нет новых непрочитанных сообщений. Правила совместной жизни / Rules of Engagement [S04] (2010) WEB-DLRip | BaibaKo

0 | 2

3.44 ГБ




Вы не можете начинать темы
Вы не можете отвечать на сообщения
Вы не можете редактировать свои сообщения
Вы не можете удалять свои сообщения
Вы не можете добавлять вложения

Перейти:  
Для Мосгорсуда, Роскомнадзора и рекламодателей: mosgorsud-torrent[собачка]yandex.ru
 Вход
ppkBB3cker v.2 © 2008-2014 @ PPK
[ Time : 0.029s | 16 Queries | GZIP : On ]

Торрент трекер RUTOR.IN, Не можете зайти на rutor.org? Какой новый адрес рутор? Какое зеркало рутор? Не работает rutor.org и зеркала? Тогда наш торрент специально для вас. Rutor.in неофициальное зеркало rutor. В случае если у Вас заблокирован rutor или вдруг Вы не можете на него зайти, то Вы без труда сможете скачать бесплатно и без рекламы последние новинки кино, игр, сериалов и прочего у нас, на Rutor.in. Не нужно использовать прокси, чтобы зайти на рутор, достаточно воспользоваться нашим ресурсом. Все новые фильмы, игры, сериалы, книги и музыка за 2013 и 2014 годы через торрент бесплатно. Скачивайте фильмы в хорошем качестве, игры для пк, xbox, playstation без регистрации. У нас вы найдете новые Зарубежные сериалы и Русские сериалы 2013, 2014, 2015 годов. Оставайтесь с нами, качайте любимые фильмы, игры, сериалы, книги и музыку.