img image001 image001 image001 image001 image001 image001 image001 image001 image001 image001 image001 image001 image001 image001 image001

Planets Sun Sun Sun
Статистика раздачи
Автор: Снежана | Размер: 2.81 ГБ | Добавлен: 25 июл 2013
Раздают: 12    Качают: 5
Скачать торрент
Скачать торрент
Описание торрента

СообщениеДобавлено: 25 июл 2013 

#77

Год выпуска: 2011
Страна: Великобритания
Жанр: драма, детектив, политический триллер
Продолжительность: 4 x ~59 мин
Перевод: профессиональный многоголосый закадровый (AlexFilm)
Cубтитры: нет

Режиссер: Ниалл МакКормик / Niall MacCormick

В ролях: Филип Гленистер (Гарри Венн), Текла Ройтен (Джина Хоукс), Томас Крэйг (Фентон Расселл), Бен Смит (Мэтт), Анна Чэнселлор (Элспет Верни), Дэвид Суше (сэр Найджел Фаунтин), Майкл Уиндер (Кевин Гонт), Мэттью Марш (Джеймс Морпет), Берти Карвел (Александр Уэнтуорт), Ричард Дормер (Фрэнк Ханна), Кристофер Фэйрбэнк (Джордж Венн), Питер Гиннесс (Джейсон Стайлз), Пол Риттер (Стиви Куирк), Дэвид Майклс (Брайан Уорсли), Сайнин Бреннан (Фрэнсис)

Описание: Политический триллер о мелком адвокате с непростым прошлым.
Однажды к нему обращается другой юрист с предложением помочь её клиенту, у которого есть информация о его давно погибшем брате. Тем временем, Англию лихорадит: коалиционное правительство разваливается на глазах, над премьер-министром сгущаются тучи. Затевается сложная, сокрытая от обывателей политическая комбинация, в которую на первый взгляд случайно угодил главный герой. События развиваются стремительно...

Качество: HDTVRip
Формат: AVI
Видео кодек: XviD
Аудио кодек: AC3
Видео: 656x368 (1.78:1), 25 fps, XviD build 50 ~1521 kbps avg, 0.25 bit/pixel
Аудио: 48 kHz, AC3 Dolby Digital, 2/0 (L,R) ch, ~192 kbps

Перевод: Vipere
Редактор перевода: Илья Белкин (Volverine73)
Роли озвучивали:
Анастасия Флигина
Татьяна Манетина
Константин Погодаев
Владимир Курдов
Александр Дасевич
Ирина Русяева (1)



D:Hidden.s01.HDTVRip.AlexFilm by dexter lexHidden.s01e01.HDTVRip.AlexFilm by dexter lex.avi
General
Complete name : D:Hidden.s01.HDTVRip.AlexFilm by dexter lexHidden.s01e01.HDTVRip.AlexFilm by dexter lex.avi
Format : AVI
Format/Info : Audio Video Interleave
File size : 718 MiB
Duration : 58mn 17s
Overall bit rate : 1 723 Kbps
Writing application : VirtualDubMod 1.5.10.3 | www.virtualdub-fr.org || (build 2550/release)
Writing library : VirtualDubMod build 2550/release
Video #0
ID : 0
Format : MPEG-4 Visual
Format profile : Advanced Simple@L5
Format settings, BVOP : 1
Format settings, QPel : No
Format settings, GMC : No warppoints
Format settings, Matrix : Custom
Codec ID : XVID
Codec ID/Hint : XviD
Duration : 58mn 17s
Bit rate : 1 521 Kbps
Width : 656 pixels
Height : 368 pixels
Display aspect ratio : 1.78:1
Frame rate : 25.000 fps
Color space : YUV
Chroma subsampling : 4:2:0
Bit depth : 8 bits
Scan type : Progressive
Compression mode : Lossy
Bits/(Pixel*Frame) : 0.252
Stream size : 634 MiB (88%)
Writing library : XviD 1.2.1 (UTC 2008-12-04)
Audio #1
ID : 1
Format : AC-3
Format/Info : Audio Coding 3
Mode extension : CM (complete main)
Format settings, Endianness : Big
Codec ID : 2000
Duration : 58mn 17s
Bit rate mode : Constant
Bit rate : 192 Kbps
Channel(s) : 2 channels
Channel positions : Front: L R
Sampling rate : 48.0 KHz
Bit depth : 16 bits
Compression mode : Lossy
Stream size : 80.0 MiB (11%)
Alignment : Split accross interleaves
Interleave, duration : 40 ms (1.00 video frame)
Interleave, preload duration : 500 ms





   Похожие торренты   Торрент   Размер 
В этой теме нет новых непрочитанных сообщений. Сокрытое / Hidden [S01] (2011) HDTVRip | den904

3 | 1

2.73 ГБ

В этой теме нет новых непрочитанных сообщений. Сокрытое: Гнев Азазеля / Sembunyi: Amukan Azazil (2012) DVDRip | L2

39 | 6

1.32 ГБ

В этой теме нет новых непрочитанных сообщений. Сокрытое: Гнев Азазеля / Sembunyi: Amukan Azazil (2012) DVDRip | L

2 | 2

828.43 МБ

В этой теме нет новых непрочитанных сообщений. Hidden & Dangerous 2: Отряд особого назначения / Hidden & Dangerous 2: Sabre Squadron(2006) PC

328 | 27

1.5 ГБ

В этой теме нет новых непрочитанных сообщений. Камелот / Camelot [S01] (2011) HDTVRip от AlexFilm

8 | 4

6.04 ГБ

В этой теме нет новых непрочитанных сообщений. Угасшие / The Fades [S01] (2011) HDTVRip | AlexFilm

45 | 13

3.52 ГБ

В этой теме нет новых непрочитанных сообщений. Топ Гир / Top Gear [17x01-03] (2011) HDTVRip | AlexFilm

0 | 2

2.64 ГБ




Вы не можете начинать темы
Вы не можете отвечать на сообщения
Вы не можете редактировать свои сообщения
Вы не можете удалять свои сообщения
Вы не можете добавлять вложения

Перейти:  
Для Мосгорсуда, Роскомнадзора и рекламодателей: mosgorsud-torrent[собачка]yandex.ru
 Вход
ppkBB3cker v.2 © 2008-2014 @ PPK
[ Time : 0.045s | 14 Queries | GZIP : Off ]

Торрент трекер RUTOR.IN, Не можете зайти на rutor.org? Какой новый адрес рутор? Какое зеркало рутор? Не работает rutor.org и зеркала? Тогда наш торрент специально для вас. Rutor.in неофициальное зеркало rutor. В случае если у Вас заблокирован rutor или вдруг Вы не можете на него зайти, то Вы без труда сможете скачать бесплатно и без рекламы последние новинки кино, игр, сериалов и прочего у нас, на Rutor.in. Не нужно использовать прокси, чтобы зайти на рутор, достаточно воспользоваться нашим ресурсом. Все новые фильмы, игры, сериалы, книги и музыка за 2013 и 2014 годы через торрент бесплатно. Скачивайте фильмы в хорошем качестве, игры для пк, xbox, playstation без регистрации. У нас вы найдете новые Зарубежные сериалы и Русские сериалы 2013, 2014, 2015 годов. Оставайтесь с нами, качайте любимые фильмы, игры, сериалы, книги и музыку.