img image001 image001 image001 image001 image001 image001 image001 image001 image001 image001 image001 image001 image001 image001 image001

Planets Sun Sun Sun
Статистика раздачи
Автор: Снежана | Размер: 1.24 ГБ | Добавлен: 25 июл 2013
Раздают: 0    Качают: 2
Скачать торрент
Скачать торрент
Описание торрента

СообщениеДобавлено: 25 июл 2013 

Год выпуска: 2013
Страна: Великобритания
Жанр: Драма
Продолжительность: ~ 60 мин.
Перевод: Субтитры
Автор перевода: keju
Режиссёр: Кэй Меллор

В ролях: Шиван Финнеран (Мэнди), Элисон Стэдмен (Роуз), Марк Эдди (Алан), Натали Гэвин (Бекки), Джими Мистри (Том) и др.

Описание: Один единственный раз в жизни попросили Бекку купить лотерейный билет и она как-то умудрилась его потерять. А ведь они точно выиграли, ведь совпало пять номеров, или больше?
Список серий:
1) Mandy / Мэнди
2) Tom / Том
3) Rose / Роуз

Скачать: Sample
Качество: HDTVRip-AVC
Формат: MP4
Видео кодек: AVC
Аудио кодек: AAC
Видео: 720x404, 25 fps, 983 kbps, 0.135 bit/pixel
Аудио: 48 kHz, 2 ch, 124 kbps
Видео
Идентификатор : 1
Формат : AVC
Формат/Информация : Advanced Video Codec
Профиль формата : High@L3.1
Параметр CABAC формата : Да
Параметр ReFrames формата : 5 кадров
Идентификатор кодека : avc1
Идентификатор кодека/Информация : Advanced Video Coding
Продолжительность : 58 м.
Битрейт : 983 Кбит/сек
Ширина : 720 пикселей
Высота : 404 пикселя
Соотношение сторон : 16:9
Режим частоты кадров : Постоянный
Частота кадров : 25,000 кадров/сек
Цветовое пространство : YUV
Субдискретизация насыщенности : 4:2:0
Битовая глубина : 8 бит
Тип развёртки : Прогрессивная
Бит/(Пиксели*Кадры) : 0.135
Размер потока : 414 Мбайт (88%)
Библиотека кодирования : x264 core 130 r2273 b3065e6
Настройки программы : cabac=1 / ref=5 / deblock=1:0:0 / analyse=0x3:0x113 / me=umh / subme=8 / psy=1 / psy_rd=1.00:0.00 / mixed_ref=1 / me_range=16 / chroma_me=1 / trellis=1 / 8x8dct=1 / cqm=0 / deadzone=21,11 / fast_pskip=1 / chroma_qp_offset=-2 / threads=12 / lookahead_threads=2 / sliced_threads=0 / nr=0 / decimate=1 / interlaced=0 / bluray_compat=0 / constrained_intra=0 / bframes=3 / b_pyramid=2 / b_adapt=2 / b_bias=0 / direct=3 / weightb=1 / open_gop=0 / weightp=2 / keyint=250 / keyint_min=25 / scenecut=40 / intra_refresh=0 / rc_lookahead=50 / rc=crf / mbtree=1 / crf=19.0 / qcomp=0.60 / qpmin=0 / qpmax=69 / qpstep=4 / ip_ratio=1.40 / aq=1:1.00
Язык : English
Коэффициенты матрицы : BT.709

Аудио
Идентификатор : 2
Формат : AAC
Формат/Информация : Advanced Audio Codec
Профиль формата : LC
Идентификатор кодека : 40
Продолжительность : 58 м.
Вид битрейта : Переменный
Битрейт : 124 Кбит/сек
Максимальный битрейт : 134 Кбит/сек
Каналы : 2 канала
Расположение каналов : Front: L R
Частота : 48,0 КГц
Метод сжатия : С потерями
Задержка видео : 80 мс.
Размер потока : 52,2 Мбайт (11%)




   Похожие торренты   Торрент   Размер 
В этой теме нет новых непрочитанных сообщений. Синдикат / The Syndicate [S02] (2013) HDTVRip | ViruseProject

16 | 5

3.43 ГБ

В этой теме нет новых непрочитанных сообщений. Синдикат / The Syndicate [S01] (2012) HDTVRip | ViruseProject

82 | 33

2.86 ГБ

В этой теме нет новых непрочитанных сообщений. Синдикат / The Syndicate [S03] (2015) HDTVRip | Victory Films & Колобок

19 | 5

3.99 ГБ

В этой теме нет новых непрочитанных сообщений. SWAT 4 + Синдикат Стечкина / SWAT 4 + Stetchkov syndicate (2005) PC | Lossless Repack от R.G. Catalyst

962 | 34

1.22 ГБ

В этой теме нет новых непрочитанных сообщений. Sonic Syndicate - Sonic Syndicate [Limited Edition] (2014) MP3

437 | 15

143.12 МБ

В этой теме нет новых непрочитанных сообщений. Cиндикат / The Syndicate [01x01] (2012) HDTVRip

0 | 2

552.04 МБ

В этой теме нет новых непрочитанных сообщений. Синдикат - 2 (1980) DVDRip

4 | 13

6.26 ГБ




Вы не можете начинать темы
Вы не можете отвечать на сообщения
Вы не можете редактировать свои сообщения
Вы не можете удалять свои сообщения
Вы не можете добавлять вложения

Перейти:  
Для Мосгорсуда, Роскомнадзора и рекламодателей: mosgorsud-torrent[собачка]yandex.ru
 Вход
ppkBB3cker v.2 © 2008-2014 @ PPK
[ Time : 0.051s | 14 Queries | GZIP : Off ]

Торрент трекер RUTOR.IN, Не можете зайти на rutor.org? Какой новый адрес рутор? Какое зеркало рутор? Не работает rutor.org и зеркала? Тогда наш торрент специально для вас. Rutor.in неофициальное зеркало rutor. В случае если у Вас заблокирован rutor или вдруг Вы не можете на него зайти, то Вы без труда сможете скачать бесплатно и без рекламы последние новинки кино, игр, сериалов и прочего у нас, на Rutor.in. Не нужно использовать прокси, чтобы зайти на рутор, достаточно воспользоваться нашим ресурсом. Все новые фильмы, игры, сериалы, книги и музыка за 2013 и 2014 годы через торрент бесплатно. Скачивайте фильмы в хорошем качестве, игры для пк, xbox, playstation без регистрации. У нас вы найдете новые Зарубежные сериалы и Русские сериалы 2013, 2014, 2015 годов. Оставайтесь с нами, качайте любимые фильмы, игры, сериалы, книги и музыку.