img image001 image001 image001 image001 image001 image001 image001 image001 image001 image001 image001 image001 image001 image001 image001

Planets Sun Sun Sun
Статистика раздачи
Автор: Снежана | Размер: 3.41 ГБ | Добавлен: 25 июл 2013
Раздают: 29    Качают: 27
Скачать торрент
Скачать торрент
Описание торрента

СообщениеДобавлено: 25 июл 2013 

#77

Информация о фильме
Название: Тайны Смолвиля
Оригинальное название: Smallville
Год выхода: 2006
Жанр: Фантастика
Режиссер: Джеймс Маршалл, Грег Биман, Майк Рол и др.
В ролях: Том Уэллинг, Майкл Розенбаум, Кристин Кройк, Сэм Джонс III, Эллисон Мэк, Джон Гловер, Аннетт О’Тул, Джон Шнайдер, Эрика Дюранс, Джастин Хартли и др.

О фильме:
Кларк сумел сбежать из Фантомной Зоны, куда его загнал Генерал Зод. Кларк сразился с Зодом и победил его, но из зоны сбежали несколько фантомов и Кларк должен найти и уничтожить их всех. Лекс проводит свои опыты над метеоритными фриками и начинает собирать армию из них. В Метрополис прибывает Оливер Квинн, супергерой Зелёная Стрела (первоначально комиксовый клон Бэтмена), который основывает Лигу Справедливости. Хлоя обнаруживает, что она метеоритный фрик. Лана узнает, что беременна от Лекса. Тем временем Лекс делает ей предложение, но Лана колеблется — она всё ещё любит Кларка.Кларку кажется что он сошёл с ума. Позже Лана узнаёт секрет Кларка и о том, что он её любит и пытается защитить, и дает ему обещание не выходить замуж за Лекса Лютора. Но Лайнел Лютор угрожает Лане Ленг, беспокоясь, что потеряв любимую Лекс окончательно сойдет с ума. Если она не выйдет за его сына — Кларк будет убит. Лане приходится присоединиться к семье Люторов. Вскоре Лана узнает, что потеряла ребёнка. Но потом, оказывается что её беременность подстроил не кто иной, как Лекс. Лана решает отомстить — она шпионит за мужем. А Кларк тем временем пытается забыть Лану, со своими друзьями он организовывает Лигу справедливости. Далее Лекс попадает в лабиринт с бомбой, тяжело раненый Лайнел умоляет Кларка помочь Лексу. Кларк отправляется спасать «друга», туда, где повсюду находятся зелёный криптонит. Лана пытается выведать у Лайнела, зачем он заставил её выйти за Лекса, на что тот отвечает, что защищает Кларка от Лекса. Лана в недоумении.
Кларк не может использовать всю свою силу, но они с Лексом выбираются в последнюю секунду, после чего раздаётся взрыв. Лана видит Кларка и бросается к нему, но потом идёт к мужу. Ясно, что Лана всё ещё любит Кларка. В конце сезона умирает Лана — её машина взрывается, Лоис Лейн ранят ножом — она умирает, но её спасает кузина Хлоя, после этого Хлоя сама находится на грани жизни и смерти.
Лана узнаёт тайну Кларка и всёже любит его. Кларка ждет новый его враг — он сам, а точнее его антипод Бизарро (фантом, получивший генетический материал Кал-Элa, который смог воссоздать его физическую оболочку со всеми способностями). Начинается схватка между Фантомом и Кал-Элом, в которой Лайнел Лютер поражает Фантома Зеленым осколком метеорита, но тот становится еще сильнее. В безвыходной ситуации Кларк обращается к Люторам за помощью, но сам находит ответ и незнает,что делать дальше!!!!



Страна: США
Продолжительность: 22 x ~00:44:00
Перевод: Профессиональный (многоголосый, закадровый) [СТС]

Файл
Формат: MP4
Качество: HDRip | КПК
Видео: MPEG-4 AVC (x264), 640x360, ~400 kbps, 23.976 fps
Аудио: AAC LC, 48.0 KHz, 2 ch, 128 Kbps
Субтитры: Нет

Семпл


K:киноTainy.Smolvilya.Sezon6.2006.AVC.HDRip.KPK.GeneralfilmTainy.Smolvilya.s06e01.2006.AVC.HDRip.KPK.Generalfilm.mp4
Format : MPEG-4
Format profile : Base Media
Codec ID : isom
File size : 162 MiB
Duration : 42mn 47s
Overall bit rate mode : Variable
Overall bit rate : 530 Kbps
Encoded date : UTC 2013-04-09 22:38:31
Tagged date : UTC 2013-04-09 22:38:31
Video #1
ID : 1
Format : AVC
Format/Info : Advanced Video Codec
Format profile : Baseline@L4.1
Format settings, CABAC : No
Format settings, ReFrames : 6 frames
Codec ID : avc1
Codec ID/Info : Advanced Video Coding
Duration : 42mn 46s
Bit rate : 400 Kbps
Maximum bit rate : 2 395 Kbps
Width : 640 pixels
Height : 360 pixels
Display aspect ratio : 16:9
Frame rate mode : Constant
Frame rate : 23.976 fps
Color space : YUV
Chroma subsampling : 4:2:0
Bit depth : 8 bits
Scan type : Progressive
Bits/(Pixel*Frame) : 0.072
Stream size : 122 MiB (75%)
Writing library : x264 core 116 r2074 2641b9e
Encoding settings : cabac=0 / ref=6 / deblock=1:-1:-1 / analyse=0x1:0x111 / me=umh / subme=7 / psy=1 / psy_rd=1.00:0.00 / mixed_ref=0 / me_range=16 / chroma_me=1 / trellis=1 / 8x8dct=0 / cqm=0 / deadzone=21,11 / fast_pskip=0 / chroma_qp_offset=-2 / threads=3 / sliced_threads=0 / nr=0 / decimate=1 / interlaced=0 / bluray_compat=0 / constrained_intra=0 / bframes=0 / weightp=0 / keyint=250 / keyint_min=23 / scenecut=40 / intra_refresh=0 / rc_lookahead=60 / rc=2pass / mbtree=1 / bitrate=400 / ratetol=1.0 / qcomp=0.60 / qpmin=0 / qpmax=69 / qpstep=4 / cplxblur=20.0 / qblur=0.5 / ip_ratio=1.40 / aq=1:1.00
Encoded date : UTC 2013-04-09 22:38:31
Tagged date : UTC 2013-04-09 22:38:40
Audio #2
ID : 2
Format : AAC
Format/Info : Advanced Audio Codec
Format profile : LC
Codec ID : 40
Duration : 42mn 47s
Bit rate mode : Variable
Bit rate : 128 Kbps
Maximum bit rate : 155 Kbps
Channel(s) : 2 channels
Channel positions : Front: L R
Sampling rate : 48.0 KHz
Compression mode : Lossy
Stream size : 39.1 MiB (24%)
Encoded date : UTC 2013-04-09 22:38:39
Tagged date : UTC 2013-04-09 22:38:40

Релиз от:



   Похожие торренты   Торрент   Размер 
В этой теме нет новых непрочитанных сообщений. Тайны Смолвиля / Smallville [S07] (2007) HDRip | КПК от Generalfilm

61 | 15

3.08 ГБ

В этой теме нет новых непрочитанных сообщений. Тайны Смолвиля / Smallville [S10] (2010) HDRip | КПК от Generalfilm

73 | 34

3.45 ГБ

В этой теме нет новых непрочитанных сообщений. Тайны Смолвиля / Smallville [S09] (2009) HDRip | КПК от Generalfilm

33 | 20

3.44 ГБ

В этой теме нет новых непрочитанных сообщений. Тайны Смолвиля / Smallville [S08] (2008) HDRip | КПК от Generalfilm

47 | 22

3.47 ГБ

В этой теме нет новых непрочитанных сообщений. Тайны Смолвиля / Smallville [S06] (2006) BDRip-AVC

29 | 11

17.77 ГБ

В этой теме нет новых непрочитанных сообщений. Тайны Смолвиля / Smallville [S06] (2006-2007) BDRip 720p | СТС, AXN Sci-Fi

18 | 16

49.87 ГБ

В этой теме нет новых непрочитанных сообщений. Тайны Смолвиля / Smallville [S05] (2005-2006) HDDVDRip 720p | СТС, AXN Sci-Fi

193 | 22

34.53 ГБ




Вы не можете начинать темы
Вы не можете отвечать на сообщения
Вы не можете редактировать свои сообщения
Вы не можете удалять свои сообщения
Вы не можете добавлять вложения

Перейти:  
Для Мосгорсуда, Роскомнадзора и рекламодателей: mosgorsud-torrent[собачка]yandex.ru
 Вход
ppkBB3cker v.2 © 2008-2014 @ PPK
[ Time : 0.066s | 14 Queries | GZIP : Off ]

Торрент трекер RUTOR.IN, Не можете зайти на rutor.org? Какой новый адрес рутор? Какое зеркало рутор? Не работает rutor.org и зеркала? Тогда наш торрент специально для вас. Rutor.in неофициальное зеркало rutor. В случае если у Вас заблокирован rutor или вдруг Вы не можете на него зайти, то Вы без труда сможете скачать бесплатно и без рекламы последние новинки кино, игр, сериалов и прочего у нас, на Rutor.in. Не нужно использовать прокси, чтобы зайти на рутор, достаточно воспользоваться нашим ресурсом. Все новые фильмы, игры, сериалы, книги и музыка за 2013 и 2014 годы через торрент бесплатно. Скачивайте фильмы в хорошем качестве, игры для пк, xbox, playstation без регистрации. У нас вы найдете новые Зарубежные сериалы и Русские сериалы 2013, 2014, 2015 годов. Оставайтесь с нами, качайте любимые фильмы, игры, сериалы, книги и музыку.