img image001 image001 image001 image001 image001 image001 image001 image001 image001 image001 image001 image001 image001 image001 image001

Planets Sun Sun Sun
Статистика раздачи
Автор: Снежана | Размер: 7.07 ГБ | Добавлен: 25 июл 2013
Раздают: 35    Качают: 9
Скачать торрент
Скачать торрент
Описание торрента

СообщениеДобавлено: 25 июл 2013 

#77

Название: Лиллехаммер
Оригинальное название: Lilyhammer
Год выпуска: 2012
Жанр: Драма, комедия, криминал
Субтитры: Английские (вшитые,на норвежскую речь)
Режиссер: Симен Алсвик, Лиза Мари Гамлем
Сценарий: Анна Бьёрнстад, Эйлиф Скодвин
В ролях: Стив Ван Зандт, Тронд Фауса Аурвааг, Мариан Саастад Оттесен, Стайнар Саген, Фридтьов Сохейм, Свен Нордин, Эни Кригсволл, Михаель Акхнес-Персон, Карре Хеллум, Томми Карлсен

Описание: Тальяно сдал своего босса федералам, и теперь, в рамках программы по защите свидетелей, он переезжает в Лиллехаммер, небольшой норвежский городок, когда-то приютивший зимние олимпийские игры. Сам Фрэнк называет его Лилихэммером, отсюда и название сериала. Фрэнк мечтает о рае с «чистым воздухом, белым снегом и клевыми телками», вдали от соблазнов Нью-Йорка и от карателей мафии. Реальность, конечно же, оказывается не такой, как мечты.

Страна: США, Норвегия, Rubicon TV AS
Продолжительность: 8 x ~ 00:45:00
Перевод: Авторский одноголосый (Ю.Сербин)


Качество: WEB-DLRip (AVC)
Видео: MPEG-4 AVC, ~ 2551 Кбит/с, 1024x576
Аудио rus: AC3, 6 ch, 448 Кбит/с

Семпл

Полное имя:E:Lillehammer.(1.sezon.1-8.seriya.iz.8).2012.x264.WEB-DLRip.(AVC).tahiy.Lillehammer.(1.sezon.1.seriya.iz.8).2012.x264.WEB-DLRip.(AVC).tahiy.mkv
Формат : Matroska
Версия формата : Version 1
Размер файла : 905 Мбайт
Продолжительность : 45 м.
Общий поток : 2801 Кбит/сек
Название фильма : - = Rip by tahiy = -
Дата кодирования : UTC 2012-04-08 13:54:26
Программа кодирования : mkvmerge v2.1.0 ('Another Place To Fall') built on Aug 19 2007 13:40:07
Библиотека кодирования : libebml v0.7.7 + libmatroska v0.8.1

Видео
Идентификатор : 1
Формат : AVC
Формат/Информация : Advanced Video Codec
Профиль формата : High@L4.1
Параметр CABAC формата : Да
Параметр ReFrames формата : 8 кадров
Идентификатор кодека : V_MPEG4/ISO/AVC
Продолжительность : 45 м.
Битрейт : 2350 Кбит/сек
Ширина : 1024 пикселя
Высота : 576 пикселей
Соотношение сторон : 16:9
Частота кадров : 25,000 кадров/сек
Цветовое пространство : YUV
Субдискретизация насыщенности : 4:2:0
Битовая глубина : 8 бит
Тип развёртки : Прогрессивная
Бит/(Пиксели*Кадры) : 0.159
Размер потока : 743 Мбайт (82%)
Заголовок : - = Rip by tahiy = -
Библиотека кодирования : x264 core 120 r2164 da19765
Настройки программы : cabac=1 / ref=8 / deblock=1:-3:-3 / analyse=0x3:0x133 / me=hex / subme=9 / psy=1 / psy_rd=1.00:0.20 / mixed_ref=1 / me_range=16 / chroma_me=1 / trellis=2 / 8x8dct=1 / cqm=0 / deadzone=21,11 / fast_pskip=0 / chroma_qp_offset=-3 / threads=3 / sliced_threads=0 / nr=0 / decimate=1 / interlaced=0 / bluray_compat=0 / constrained_intra=0 / bframes=3 / b_pyramid=2 / b_adapt=1 / b_bias=0 / direct=3 / weightb=0 / open_gop=0 / weightp=2 / keyint=50 / keyint_min=24 / scenecut=40 / intra_refresh=0 / rc_lookahead=40 / rc=2pass / mbtree=1 / bitrate=2350 / ratetol=1.0 / qcomp=0.60 / qpmin=10 / qpmax=51 / qpstep=4 / cplxblur=20.0 / qblur=0.5 / ip_ratio=1.40 / aq=1:1.00
Язык : English
Default : Да
Forced : Да

Аудио
Идентификатор : 2
Формат : AC-3
Формат/Информация : Audio Coding 3
Расширение режима : CM (complete main)
Идентификатор кодека : A_AC3
Продолжительность : 45 м.
Вид битрейта : Постоянный
Битрейт : 448 Кбит/сек
Каналы : 6 каналов
Расположение каналов : Front: L C R, Side: L R, LFE
Частота : 48,0 КГц
Битовая глубина : 16 бит
Метод сжатия : С потерями
Размер потока : 145 Мбайт (16%)
Default : Да
Forced : Да


1. Проверка в реальных условиях / Reality Check
2. Фламинго / The Flamingo
3. Гуантанамский блюз / Guantanamo Blues
4. Акушерка / The Midwife
5. Мой вид города / My Kind of Town
6. Надевай свои кожаные штаны / Pack Your the Lederhosen
7. Няни / The Babysitter
8. Тролли / Trolls





Релиз от:



   Похожие торренты   Торрент   Размер 
В этой теме нет новых непрочитанных сообщений. Лиллехаммер / Lilyhammer [S01] (2012) WEB-DLRip | NovaFilm

573 | 27

4.37 ГБ

В этой теме нет новых непрочитанных сообщений. Лиллехаммер / Lilyhammer [01x02] (2012) WEB-DLRip 1080p | NovaFilm

0 | 7

2.24 ГБ

В этой теме нет новых непрочитанных сообщений. Лиллехаммер / Lilyhammer [01x01] (2012) WEB-DLRip 1080p | NovaFilm

1 | 8

2.17 ГБ

В этой теме нет новых непрочитанных сообщений. Лиллехаммер / Lilyhammer [S01] (2012) HDRip | P

90 | 13

4.3 ГБ

В этой теме нет новых непрочитанных сообщений. Лиллехаммер / Lilyhammer [S01-02] (2012-2013) BDRip | АРК-ТВ

709 | 180

7.23 ГБ

В этой теме нет новых непрочитанных сообщений. Лиллехаммер / Lilyhammer [01x04-05] (2012) WEB-DL 720p | NovaFilm

1 | 3

2.32 ГБ

В этой теме нет новых непрочитанных сообщений. Лиллехаммер / Lilyhammer [01x03] (2012) WEB-DL 720p | NovaFilm

1 | 2

1.15 ГБ




Вы не можете начинать темы
Вы не можете отвечать на сообщения
Вы не можете редактировать свои сообщения
Вы не можете удалять свои сообщения
Вы не можете добавлять вложения

Перейти:  
Для Мосгорсуда, Роскомнадзора и рекламодателей: mosgorsud-torrent[собачка]yandex.ru
 Вход
ppkBB3cker v.2 © 2008-2014 @ PPK
[ Time : 0.060s | 16 Queries | GZIP : Off ]

cron