img image001 image001 image001 image001 image001 image001 image001 image001 image001 image001 image001 image001 image001 image001 image001

Planets Sun Sun Sun
Статистика раздачи
Автор: Снежана | Размер: 4.41 ГБ | Добавлен: 25 июл 2013
Раздают: 4    Качают: 1
Скачать торрент
Скачать торрент
Описание торрента

СообщениеДобавлено: 25 июл 2013 

#77

Год выпуска: 2011
Страна: Австралия
Жанр: драма, приключения, вестерн
Продолжительность: ~00:42:00
Перевод: Любительский (многоголосый закадровый) - - 11 голосов - ViruseProject & DreamRecords & Jimmy J
Русские субтитры: нет
Режиссёр: Ширли Баррет / Shirley Barrett

В ролях: Дэниэл Макферсон, Майкл Дорман, Зои Вентура, Анна Хатчисон, Джереми Симс, Натаниель Дин, Дэвид Филд, Кэролайн Брейзиер, Крю Бойлэн, Кристофер Столлери и др.

Описание: Действие сериала разворачивается в австралийском городке Хоуптаун, в 60-е годы 19 века. Время беззакония, коррупции и всех атрибутов свободного общества. У лесных разбойников - по австралийски бушрэйнжеров- Джека, Дэна, Капитана Пороха и бывшего кузнеца Конрада два пути - или грабить богатых, скрываясь от полиции, или быть вздёрнутыми на виселице. Фантазия главных героев в плане способов отъёма денег, помноженная на австралийский колорит и отличную игру прекрасных актёров дали в результате отличный сериал. Приятного всем просмотра!

Примечания переводчика:
Перевод адаптированный, некоторые понятия или не переводились для сохранения местного колорита (бушрэйнжеры), или были изменены на более привычные без искажения смысла. К примеру "Police Superintendent" = "Шериф" и т.д.


Релиз:

скачать СЕМПЛ с multi-up

http://www.youtube.com/watch?v=G0SZn6SQe28&feature - Смотреть семпл озвучки 3 СЕРИИ на youtube

http://www.youtube.com/watch?v=VpdpT8C4xaE&feature - Смотреть семпл озвучки на youtube второй серии
http://www.youtube.com/watch?v=cvyCNWOk7YU&feature=youtu.be - Смотреть семпл озвучки на youtube №2

Качество: DVDRip
Формат: AVI
Видео кодек: XviD
Аудио кодек: MP3
Видео: 624x352 (1.77:1), 25 fps, XviD build 50 ~1030 kbps avg, 0.19 bit/pixel
Аудио: 48 kHz, MPEG Layer 3, 2 ch, ~128.00 kbps avg
D:ОЗВУЧКАГОТОВОЕWild.Boys.S01.ViruseProject&DreamRecordsWild.Boys.S01E02.ViruseProject&DreamRecords.avi
General
Complete name : D:ОЗВУЧКАГОТОВОЕWild.Boys.S01.ViruseProject&DreamRecordsWild.Boys.S01E02.ViruseProject&DreamRecords.avi
Format : AVI
Format/Info : Audio Video Interleave
File size : 543 MiB
Duration : 42mn 59s
Overall bit rate : 1 767 Kbps
Writing application : VirtualDubMod 1.5.10.2 (build 2540/release)
Writing library : VirtualDubMod build 2540/release
Video #0
ID : 0
Format : MPEG-4 Visual
Format profile : Advanced Simple@L5
Format settings, BVOP : 2
Format settings, QPel : No
Format settings, GMC : No warppoints
Format settings, Matrix : Default (H.263)
Muxing mode : Packed bitstream
Codec ID : XVID
Codec ID/Hint : XviD
Duration : 42mn 59s
Bit rate : 1 629 Kbps
Width : 624 pixels
Height : 352 pixels
Display aspect ratio : 16:9
Frame rate : 25.000 fps
Color space : YUV
Chroma subsampling : 4:2:0
Bit depth : 8 bits
Scan type : Progressive
Compression mode : Lossy
Bits/(Pixel*Frame) : 0.297
Stream size : 501 MiB (92%)
Writing library : XviD 64
Audio #1
ID : 1
Format : MPEG Audio
Format version : Version 1
Format profile : Layer 3
Mode : Dual mono
Codec ID : 55
Codec ID/Hint : MP3
Duration : 42mn 59s
Bit rate mode : Constant
Bit rate : 128 Kbps
Channel(s) : 2 channels
Sampling rate : 48.0 KHz
Compression mode : Lossy
Stream size : 39.4 MiB (7%)
Alignment : Aligned on interleaves
Interleave, duration : 40 ms (1.00 video frame)
Interleave, preload duration : 504 ms







   Похожие торренты   Торрент   Размер 
В этой теме нет новых непрочитанных сообщений. Отчаянные домохозяева / House Husbands [01х01-10 из 10] (2012) DVDRip | ViruseProject

3 | 2

3.59 ГБ

В этой теме нет новых непрочитанных сообщений. Парни из Трейлерпарка: Не легализуйте это / Trailer Park Boys: Don't Legalize It (2014) BDRip 720p | Jimmy J.

87 | 6

3.06 ГБ

В этой теме нет новых непрочитанных сообщений. Парни из женской общаги / Парни из женского общества / Sorority Boys (2002) DVDRip | A

111 | 13

1.46 ГБ

В этой теме нет новых непрочитанных сообщений. Парни-вампиры / Vampire Boys (2011) DVDRip

6 | 2

847.11 МБ

В этой теме нет новых непрочитанных сообщений. Парень, который убивает людей / Some Guy Who Kills People (2011) DVDRip | ViruseProject & DreamRecords & Xixidok

8 | 1

1.77 ГБ

В этой теме нет новых непрочитанных сообщений. Отчаянные домохозяева / House Husbands [S02] (2013) DVDRip | ViruseProject

2 | 1

5.25 ГБ

В этой теме нет новых непрочитанных сообщений. Плохие парни 2 / Bad Boys II (2003) DVDRip

41 | 6

2.05 ГБ




Вы не можете начинать темы
Вы не можете отвечать на сообщения
Вы не можете редактировать свои сообщения
Вы не можете удалять свои сообщения
Вы не можете добавлять вложения

Перейти:  
Для Мосгорсуда, Роскомнадзора и рекламодателей: mosgorsud-torrent[собачка]yandex.ru
 Вход
ppkBB3cker v.2 © 2008-2014 @ PPK
[ Time : 0.070s | 15 Queries | GZIP : Off ]

Торрент трекер RUTOR.IN, Не можете зайти на rutor.org? Какой новый адрес рутор? Какое зеркало рутор? Не работает rutor.org и зеркала? Тогда наш торрент специально для вас. Rutor.in неофициальное зеркало rutor. В случае если у Вас заблокирован rutor или вдруг Вы не можете на него зайти, то Вы без труда сможете скачать бесплатно и без рекламы последние новинки кино, игр, сериалов и прочего у нас, на Rutor.in. Не нужно использовать прокси, чтобы зайти на рутор, достаточно воспользоваться нашим ресурсом. Все новые фильмы, игры, сериалы, книги и музыка за 2013 и 2014 годы через торрент бесплатно. Скачивайте фильмы в хорошем качестве, игры для пк, xbox, playstation без регистрации. У нас вы найдете новые Зарубежные сериалы и Русские сериалы 2013, 2014, 2015 годов. Оставайтесь с нами, качайте любимые фильмы, игры, сериалы, книги и музыку.