img image001 image001 image001 image001 image001 image001 image001 image001 image001 image001 image001 image001 image001 image001 image001

Planets Sun Sun Sun
Статистика раздачи
Автор: Снежана | Размер: 18.87 ГБ | Добавлен: 25 июл 2013
Раздают: 186    Качают: 171
Скачать торрент
Скачать торрент
Описание торрента

СообщениеДобавлено: 25 июл 2013 

#77

Год выпуска: 2012
Страна: США
Жанр: комедия, драма, криминальный
Перевод: Авторский одноголосый закадровый (Ю. Сербин)
Режиссёр: Simen Alsvik
В ролях: Стив Ван Зандт, Мариан Саастад Оттесен, Тронд Фауса Аурвааг, Anne Krigsvoll, Steinar Sagen, Mikael Aksnes-Pehrson, Свен Нордин, Фридтьов Сохейм, Карре Хеллум, Томми Карлсен и др.

Описание: Тальяно сдал своего босса федералам, и теперь, в рамках программы по защите свидетелей, он переезжает в Лиллехаммер, небольшой норвежский городок, когда-то приютивший зимние олимпийские игры. Сам Фрэнк называет его Лилихэммером, отсюда и название сериала. Фрэнк мечтает о рае с «чистым воздухом, белым снегом и клевыми телками», вдали от соблазнов Нью-Йорка и от карателей мафии. Реальность, конечно же, оказывается не такой, как мечты.



Страна: США
Продолжительность: 08 х ~ 00:50:00
Перевод: Профессиональный (многоголосый закадровый) - Первый канал
Перевод: Авторский - Ю. Сербин
Субтитры: Норвежские



Качество: BDRip 720p
Формат: MKV
Видео кодек: H.264
Аудио кодек: AC3
Видео: 1280x720, 25.000 fps, ~4 197 kbps
Аудио Rus: 48 kHz, 2 ch, ~192 kbps - Первый канал
Аудио Rus: 48 kHz, 6 ch, ~640 kbps - Ю. Сербин
Аудио Eng: 48 kHz, 6 ch, ~640 kbps - Original

General
Unique ID : 179851341644065550335167549898412002723 (0x874E1BC2CAF5FF54B51512F5C99C0DA3)
Complete name : I:ЗАКАЧКИЛиллехаммер .s01.bdrip.720plilyhammer.s01e01.bdrip.720p.mkv
Format : Matroska
File size : 1.83 GiB
Duration : 45mn 11s
Overall bit rate : 5 784 Kbps
Encoded date : UTC 2013-03-05 18:24:03
Writing application : mkvmerge v4.6.0 ('Still Crazy After All These Years') сборка от Apr 1 2011 21:01:49
Writing library : libebml v1.2.0 + libmatroska v1.1.0

Video
ID : 1
Format : AVC
Format/Info : Advanced Video Codec
Format profile : High@L4.1
Format settings, CABAC : Yes
Format settings, ReFrames : 9 frames
Codec ID : V_MPEG4/ISO/AVC
Duration : 45mn 11s
Bit rate : 4 197 Kbps
Width : 1 280 pixels
Height : 720 pixels
Display aspect ratio : 16:9
Frame rate : 25.000 fps
Color space : YUV
Chroma subsampling : 4:2:0
Bit depth : 8 bits
Scan type : Progressive
Bits/(Pixel*Frame) : 0.182
Stream size : 1.32 GiB (73%)
Title : Lilyhammer - Season 1, Episode 1: Reality Check ("С Небес На Землю")
Writing library : x264 core 122 r2184 5c85e0a
Encoding settings : cabac=1 / ref=9 / deblock=1:-3:-3 / analyse=0x3:0x133 / me=umh / subme=10 / psy=1 / psy_rd=1.10:0.00 / mixed_ref=1 / me_range=24 / chroma_me=1 / trellis=2 / 8x8dct=1 / cqm=0 / deadzone=21,11 / fast_pskip=1 / chroma_qp_offset=-2 / threads=12 / sliced_threads=0 / nr=0 / decimate=1 / interlaced=0 / bluray_compat=0 / constrained_intra=0 / bframes=8 / b_pyramid=2 / b_adapt=2 / b_bias=0 / direct=3 / weightb=1 / open_gop=0 / weightp=2 / keyint=250 / keyint_min=25 / scenecut=40 / intra_refresh=0 / rc_lookahead=60 / rc=crf / mbtree=1 / crf=15.0 / qcomp=0.60 / qpmin=0 / qpmax=69 / qpstep=4 / vbv_maxrate=50000 / vbv_bufsize=50000 / crf_max=0.0 / nal_hrd=none / ip_ratio=1.40 / aq=1:0.60
Language : Norwegian

Audio #1
ID : 2
Format : AC-3
Format/Info : Audio Coding 3
Mode extension : CM (complete main)
Codec ID : A_AC3
Duration : 45mn 11s
Bit rate mode : Constant
Bit rate : 192 Kbps
Channel(s) : 2 channels
Channel positions : Front: L R
Sampling rate : 48.0 KHz
Bit depth : 16 bits
Compression mode : Lossy
Stream size : 62.1 MiB (3%)
Title : Lilyhammer.s01e01.BDRip.720p.NewStudio.TV
Language : Russian

Audio #2
ID : 3
Format : AC-3
Format/Info : Audio Coding 3
Mode extension : CM (complete main)
Codec ID : A_AC3
Duration : 45mn 11s
Bit rate mode : Constant
Bit rate : 640 Kbps
Channel(s) : 6 channels
Channel positions : Front: L C R, Side: L R, LFE
Sampling rate : 48.0 KHz
Bit depth : 16 bits
Compression mode : Lossy
Stream size : 207 MiB (11%)
Title : Dolby Digital 5.1 @ 640 kbps
Language : Russian

Audio #3
ID : 4
Format : AC-3
Format/Info : Audio Coding 3
Mode extension : CM (complete main)
Codec ID : A_AC3
Duration : 45mn 11s
Bit rate mode : Constant
Bit rate : 640 Kbps
Channel(s) : 6 channels
Channel positions : Front: L C R, Side: L R, LFE
Sampling rate : 48.0 KHz
Bit depth : 16 bits
Compression mode : Lossy
Stream size : 207 MiB (11%)
Title : Dolby Digital 5.1 @ 640 kbps
Language : Norwegian

Text
ID : 5
Format : UTF-8
Codec ID : S_TEXT/UTF8
Codec ID/Info : UTF-8 Plain Text
Language : Norwegian

Menu
00:00:00.000 : :1
00:08:19.240 : :2
00:17:46.480 : :3
00:27:53.680 : :4
00:37:17.840 : :5


Релиз от:



   Похожие торренты   Торрент   Размер 
В этой теме нет новых непрочитанных сообщений. Лиллехаммер / Lilyhammer [S02] (2013) HDTV 720p | Ю.Сербин

209 | 71

22.65 ГБ

В этой теме нет новых непрочитанных сообщений. Лиллехаммер / Lilyhammer [S01-03] (2012-2014) HDRip от qqss44 | Сербин

58 | 55

16.09 ГБ

В этой теме нет новых непрочитанных сообщений. Лиллехаммер / Lilyhammer [02x01-07] (2013) HDTV 720p | Ю.Сербин

0 | 7

19.61 ГБ

В этой теме нет новых непрочитанных сообщений. Лиллехаммер / Lilyhammer [03x01-06 из 08] (2014) HDTVRip 720p от HDClub | Сербин

34 | 32

9.93 ГБ

В этой теме нет новых непрочитанных сообщений. Лиллехаммер / Lilyhammer [03x01-03 из 08] (2014) HDTVRip | Сербин

127 | 31

2.16 ГБ

В этой теме нет новых непрочитанных сообщений. Лиллехаммер / Lilyhammer [03x01-03 из 08] (2014) HDTVRip | Сербин

1 | 4

1.63 ГБ

В этой теме нет новых непрочитанных сообщений. Лиллехаммер / Lilyhammer [02х01-05] (2013) HDTVRip | Ю.Сербин

0 | 13

2.98 ГБ




Вы не можете начинать темы
Вы не можете отвечать на сообщения
Вы не можете редактировать свои сообщения
Вы не можете удалять свои сообщения
Вы не можете добавлять вложения

Перейти:  
Для Мосгорсуда, Роскомнадзора и рекламодателей: mosgorsud-torrent[собачка]yandex.ru
 Вход
ppkBB3cker v.2 © 2008-2014 @ PPK
[ Time : 0.033s | 16 Queries | GZIP : Off ]

Торрент трекер RUTOR.IN, Не можете зайти на rutor.org? Какой новый адрес рутор? Какое зеркало рутор? Не работает rutor.org и зеркала? Тогда наш торрент специально для вас. Rutor.in неофициальное зеркало rutor. В случае если у Вас заблокирован rutor или вдруг Вы не можете на него зайти, то Вы без труда сможете скачать бесплатно и без рекламы последние новинки кино, игр, сериалов и прочего у нас, на Rutor.in. Не нужно использовать прокси, чтобы зайти на рутор, достаточно воспользоваться нашим ресурсом. Все новые фильмы, игры, сериалы, книги и музыка за 2013 и 2014 годы через торрент бесплатно. Скачивайте фильмы в хорошем качестве, игры для пк, xbox, playstation без регистрации. У нас вы найдете новые Зарубежные сериалы и Русские сериалы 2013, 2014, 2015 годов. Оставайтесь с нами, качайте любимые фильмы, игры, сериалы, книги и музыку.