img image001 image001 image001 image001 image001 image001 image001 image001 image001 image001 image001 image001 image001 image001 image001

Planets Sun Sun Sun
Статистика раздачи
Автор: Снежана | Размер: 1.34 ГБ | Добавлен: 26 июл 2013
Раздают: 1    Качают: 1
Скачать торрент
Скачать торрент
Описание торрента

СообщениеДобавлено: 26 июл 2013 

Год выпуска: 2013
Страна: Австралия
Жанр: Комедия
Продолжительность:6х ~ 25 мин.
Перевод: Субтитры.
Автор перевода: teattack.
Режиссёр: Мэттью Савилл

В ролях: Джош Томас, Дебра Лоуренс, Дэвид Робертс, Вэйд Бриггс, Никита Ровер-Притчард, Кэйтлин Стэйси, Thomas Ward, Рени Лим, Джуди Фарр, Пол Доубер и др.

Описание: Жизнь Джоша перевернулась с ног на голову. Сначала его бросила девушка, потому что они отдалились, и потому что он гей. Затем на него запал безумно красивый парень, а это странно, ведь сам Джош не ахти. И самое главное - его мама попала в больницу при попытке самоубийства, и теперь ему придется переехать к ней и проследить, чтобы она не повторила своей попытки. В двух словах, жизнь удалась.
Список серий:
1) Rhubarb and Custard / С ног на голову
2) French Toast / Французский тост
3) Portuguese Custard Tarts / Португальские тарталетки с заварным кремом
4) All You Can Eat / Ешь все, что только сможешь
5) Spanish Eggs / Яйца по-испански
6) Horrible Sandwiches / Отвратительные сэндвичи

Сэмпл: Скачать
Качество: PDTVRip
Формат: AVI
Видео кодек: XviD
Аудио кодек: MP3
Видео: 640 x 352, 25 fps, 977 kbps, 0.173 bit/pixel
Аудио: 48.0 KHz, 2 ch, 128 kbps
Видео
Идентификатор : 0
Формат : MPEG-4 Visual
Профиль формата : Advanced Simple@L5
Параметр BVOP формата : 2
Параметр QPel формата : Нет
Параметр GMC формата : Без точки перехода
Параметр матрицы формата : Default (H.263)
Режим смешивания : Сжатый битовый поток
Идентификатор кодека : XVID
Идентификатор кодека/Подсказка : XviD
Продолжительность : 55 м.
Битрейт : 1014 Кбит/сек
Ширина : 640 пикселей
Высота : 352 пикселя
Соотношение сторон : 16:9
Частота кадров : 25,000 кадров/сек
Цветовое пространство : YUV
Субдискретизация насыщенности : 4:2:0
Битовая глубина : 8 бит
Тип развёртки : Прогрессивная
Метод сжатия : С потерями
Бит/(Пиксели*Кадры) : 0.180
Размер потока : 400 Мбайт (87%)
Библиотека кодирования : XviD 63

Аудио
Идентификатор : 1
Формат : MPEG Audio
Версия формата : Version 1
Профиль формата : Layer 3
Режим : Joint stereo
Расширение режима : MS Stereo
Идентификатор кодека : 55
Идентификатор кодека/Подсказка : MP3
Продолжительность : 55 м.
Вид битрейта : Переменный
Битрейт : 128 Кбит/сек
Каналы : 2 канала
Частота : 48,0 КГц
Метод сжатия : С потерями
Размер потока : 52,2 Мбайт (11%)
Выравнивание : Соединение по промежуткам
Продолжительность промежутка : 24 мс. (0,60 видеокадр)
Время предзагрузки промежутка : 493 мс.
Библиотека кодирования : LAME3.90.
Настройки программы : -m j -V 4 -q 2 -lowpass 17.6 --abr 128




   Похожие торренты   Торрент   Размер 
В этой теме нет новых непрочитанных сообщений. Беглянки / Wanted [01х01-02 из 06] (2016) PDTVRip | Jaskier

368 | 31

770.22 МБ

В этой теме нет новых непрочитанных сообщений. Беглянки / Wanted [01х01-04 из 06] (2016) PDTVRip | Jaskier

259 | 101

1.53 ГБ

В этой теме нет новых непрочитанных сообщений. Рассмеши комика / Розсміши коміка [01х01-13] (2011) PDTVRip

4 | 32

7.47 ГБ

В этой теме нет новых непрочитанных сообщений. WWE Monday Night RAW [19.08] (2013) PDTVRip

0 | 2

1.24 ГБ

В этой теме нет новых непрочитанных сообщений. Потерянные / Nowhere Boys [s01] (2013 - 2014) PDTVRip | VO-production

123 | 37

2.98 ГБ

В этой теме нет новых непрочитанных сообщений. Волчья кровь / Wolfblood [S02] (2013) PDTVRip | DreamRecords

38 | 3

3.41 ГБ

В этой теме нет новых непрочитанных сообщений. Реслинг. TNA One Night Only: Ten Year Reunion (2013) PDTVRip

1 | 2

1.39 ГБ




Вы не можете начинать темы
Вы не можете отвечать на сообщения
Вы не можете редактировать свои сообщения
Вы не можете удалять свои сообщения
Вы не можете добавлять вложения

Перейти:  
Для Мосгорсуда, Роскомнадзора и рекламодателей: mosgorsud-torrent[собачка]yandex.ru
 Вход
ppkBB3cker v.2 © 2008-2014 @ PPK
[ Time : 0.080s | 14 Queries | GZIP : Off ]

Торрент трекер RUTOR.IN, Не можете зайти на rutor.org? Какой новый адрес рутор? Какое зеркало рутор? Не работает rutor.org и зеркала? Тогда наш торрент специально для вас. Rutor.in неофициальное зеркало rutor. В случае если у Вас заблокирован rutor или вдруг Вы не можете на него зайти, то Вы без труда сможете скачать бесплатно и без рекламы последние новинки кино, игр, сериалов и прочего у нас, на Rutor.in. Не нужно использовать прокси, чтобы зайти на рутор, достаточно воспользоваться нашим ресурсом. Все новые фильмы, игры, сериалы, книги и музыка за 2013 и 2014 годы через торрент бесплатно. Скачивайте фильмы в хорошем качестве, игры для пк, xbox, playstation без регистрации. У нас вы найдете новые Зарубежные сериалы и Русские сериалы 2013, 2014, 2015 годов. Оставайтесь с нами, качайте любимые фильмы, игры, сериалы, книги и музыку.