img image001 image001 image001 image001 image001 image001 image001 image001 image001 image001 image001 image001 image001 image001 image001 image001

Planets Sun Sun Sun
Статистика раздачи
Автор: Снежана | Размер: 1.75 ГБ | Добавлен: 25 июл 2013
Раздают: 0    Качают: 3
Скачать торрент
Скачать торрент
Описание торрента

СообщениеДобавлено: 25 июл 2013 

#77

Информация о фильме
Название: Викинги
Оригинальное название: Vikings
Год выхода: 2013
Жанр: Боевик, драма, военный, история
Режиссер: Киаран Доннелли, Йохан Ренк, Кен Джиротти
В ролях: Трэвис Фиммел, Клайв Стэнден, Кэтрин Уинник, Гэбриел Бирн, Джессалин Гилсиг, Густаф Скарсгард, Джефферсон Холл, Джордж Благден, Тадж Мерфи, Диармэйд Мурта

О фильме:
Сериал рассказывает об отряде викингов Рагнара. Он восстал, чтобы стать королём племён викингов. Норвежская легенда гласит, что он был прямым потомком Одина, бога войны и воинов..



01. - "Обряды"
02. - 10 марта "Гнев северян"
03. - 17 марта "Обездоленные"
04. - 24 марта "Испытание"
05. - 31 марта "Набег"
06. - 7 апреля "Погребение мертвых"
07. - 14 апреля "Королевский выкуп"
08. - 21 апреля "Жертвоприношение"
09. - 28 апреля "Все изменится"

Страна: Ирландия, Канада
Продолжительность: 9 х ~00:44:00
Перевод: Профессиональный (многоголосый, закадровый) [BaibaKo]
Перевод: Янина Галицкая
Озвучка: Артемий Мирон, Сергей Корчак, Алексей Кузнецов и Елена Григорьева

Файл
Формат: MP4
Качество: WEB-DLRip | КПК
Видео: MPEG-4 AVC (x264), 640x360, ~500 kbps, 23.976 fps
Аудио: AAC LC, 48.0 KHz, 2 ch, 128 Kbps
Субтитры: Нет

Раздача ведется путем добавления новых серий. 30.04.2013 добавлена 9-серия. Конец сезона

Семпл


Format : MPEG-4
Format profile : Base Media
Codec ID : isom
File size : 199 MiB
Duration : 44mn 12s
Overall bit rate mode : Variable
Overall bit rate : 630 Kbps
Encoded date : UTC 2013-04-07 13:51:33
Tagged date : UTC 2013-04-07 13:51:33
Video #1
ID : 1
Format : AVC
Format/Info : Advanced Video Codec
Format profile : Baseline@L4.1
Format settings, CABAC : No
Format settings, ReFrames : 6 frames
Codec ID : avc1
Codec ID/Info : Advanced Video Coding
Duration : 44mn 12s
Bit rate : 500 Kbps
Maximum bit rate : 2 847 Kbps
Width : 640 pixels
Height : 360 pixels
Display aspect ratio : 16:9
Frame rate mode : Constant
Frame rate : 23.976 fps
Color space : YUV
Chroma subsampling : 4:2:0
Bit depth : 8 bits
Scan type : Progressive
Bits/(Pixel*Frame) : 0.091
Stream size : 158 MiB (79%)
Writing library : x264 core 119 r2106 07efeb4
Encoding settings : cabac=0 / ref=6 / deblock=1:-1:-1 / analyse=0x1:0x111 / me=umh / subme=7 / psy=1 / psy_rd=1.00:0.00 / mixed_ref=0 / me_range=16 / chroma_me=1 / trellis=1 / 8x8dct=0 / cqm=0 / deadzone=21,11 / fast_pskip=0 / chroma_qp_offset=-2 / threads=3 / sliced_threads=0 / nr=0 / decimate=1 / interlaced=0 / bluray_compat=0 / constrained_intra=0 / bframes=0 / weightp=0 / keyint=250 / keyint_min=23 / scenecut=40 / intra_refresh=0 / rc_lookahead=60 / rc=2pass / mbtree=1 / bitrate=500 / ratetol=1.0 / qcomp=0.60 / qpmin=0 / qpmax=69 / qpstep=4 / cplxblur=20.0 / qblur=0.5 / ip_ratio=1.40 / aq=1:1.00
Encoded date : UTC 2013-04-07 13:51:33
Tagged date : UTC 2013-04-07 13:51:44
Audio #2
ID : 2
Format : AAC
Format/Info : Advanced Audio Codec
Format profile : LC
Codec ID : 40
Duration : 44mn 12s
Bit rate mode : Variable
Bit rate : 128 Kbps
Maximum bit rate : 144 Kbps
Channel(s) : 2 channels
Channel positions : Front: L R
Sampling rate : 48.0 KHz
Compression mode : Lossy
Stream size : 40.5 MiB (20%)
Encoded date : UTC 2013-04-07 13:51:43
Tagged date : UTC 2013-04-07 13:51:44

Релиз от:



   Похожие торренты   Торрент   Размер 
В этой теме нет новых непрочитанных сообщений. Викинги / Vikings [S01-02] (2013-2014) WEB-DLRip от Generalfilm | КПК | Baibako

169 | 53

3.7 ГБ

В этой теме нет новых непрочитанных сообщений. Викинги / Vikings [S01] (2013) WEB-DLRip | BaibaKo

281 | 126

7.04 ГБ

В этой теме нет новых непрочитанных сообщений. Викинги / Vikings [S01-02] (2013-2014) WEB-DLRip-AVC | BaibaKo

87 | 26

15.17 ГБ

В этой теме нет новых непрочитанных сообщений. Викинги / Vikings [S01-02] (2013-2014) WEB-DLRip | BaibaKo

47 | 21

14.29 ГБ

В этой теме нет новых непрочитанных сообщений. Викинги / Vikings [02x01-06 из 10] (2014) WEB-DLRip | BaibaKo

208 | 650

4.41 ГБ

В этой теме нет новых непрочитанных сообщений. Викинги / Vikings [02x01-04 из 10] (2014) WEB-DLRip | BaibaKo

70 | 183

2.98 ГБ

В этой теме нет новых непрочитанных сообщений. Викинги / Vikings [02x01-05 из 10] (2014) WEB-DLRip | BaibaKo

330 | 1100

3.7 ГБ




Вы не можете начинать темы
Вы не можете отвечать на сообщения
Вы не можете редактировать свои сообщения
Вы не можете удалять свои сообщения
Вы не можете добавлять вложения

Перейти:  
 Вход
ppkBB3cker v.2 © 2008-2014 @ PPK
[ Time : 0.030s | 17 Queries | GZIP : Off ]

cron