img image001 image001 image001 image001 image001 image001 image001 image001 image001 image001 image001 image001 image001 image001 image001

Planets Sun Sun Sun
Статистика раздачи
Автор: Снежана | Размер: 785.75 МБ | Добавлен: 25 июл 2013
Раздают: 207    Качают: 23
Скачать торрент
Скачать торрент
Описание торрента

СообщениеДобавлено: 25 июл 2013 

#77

Информация о фильме
Название: Легенды о Круге
Год выхода: 2013
Жанр: Драма, биографический
Режиссер: Тимур Кабулов
В ролях: Юрий Кузнецов-Таeжный, Ольга Филимонова, Дарья Калмыкова, Диана Корсс, Александр Домогаров, Иван Добронравов, Александр Кузнецов, Сергей Газаров

О фильме:
Михаил Воробьев, прославившийся под псевдонимом Круг, - один популярных в народе исполнителей шансона 1990-х годов, автор «Владимирского централа», «Кольщика» и «Куполов". «Легенды о Круге» первая художественная кинобиография певца. Михаил Круг был застрелен у себя дома в Твери в июле 2002 года. На тот момент ему было 40 лет. Убийство певца до сих пор не раскрыто, однако в фильме «Легенды о Круге» будет изложена авторская версия этих драматических событий. Фильм рассказывает о судьбе известного автора и исполнителя песен Михаила Круга. Его жизнь была яркой и насыщенной: концерты, гастроли, выход новых песен. Он очень любил друзей, хорошую компанию, жену и детей. Но смерть настигла его в самом расцвете творческой славы. Тайна гибели Михаила Круга до сих пор не раскрыта, убийца не найден. Это случилось почти десять лет назад, а песни его живут и по сей день.



Страна: Россия, Централ Партнершип
Продолжительность: 4 х ~00:45:00
Перевод: Не требуется

Файл
Формат: MP4
Качество: HDTVRip | КПК
Видео: MPEG-4 AVC (x264), 640x360, ~500 kbps, 25.000 fps
Аудио: AAC LC, 48.0 KHz, 2 ch, 128 Kbps
Субтитры: Нет

Семпл


K:киноLegendy.o.Kruge.2013.AVC.HDTVRip.KPK.GeneralfilmLegendy.o.Kruge.(4.seriya.iz.4).2013.AVC.HDTVRip.KPK.Generalfilm.mp4
Format : MPEG-4
Format profile : Base Media
Codec ID : isom
File size : 185 MiB
Duration : 41mn 2s
Overall bit rate mode : Variable
Overall bit rate : 631 Kbps
Encoded date : UTC 2013-04-28 13:59:14
Tagged date : UTC 2013-04-28 13:59:14
Video #1
ID : 1
Format : AVC
Format/Info : Advanced Video Codec
Format profile : Baseline@L4.1
Format settings, CABAC : No
Format settings, ReFrames : 6 frames
Codec ID : avc1
Codec ID/Info : Advanced Video Coding
Duration : 41mn 2s
Bit rate : 500 Kbps
Maximum bit rate : 2 611 Kbps
Width : 640 pixels
Height : 360 pixels
Display aspect ratio : 16:9
Frame rate mode : Constant
Frame rate : 25.000 fps
Color space : YUV
Chroma subsampling : 4:2:0
Bit depth : 8 bits
Scan type : Progressive
Bits/(Pixel*Frame) : 0.087
Stream size : 147 MiB (79%)
Writing library : x264 core 119 r2106 07efeb4
Encoding settings : cabac=0 / ref=6 / deblock=1:-1:-1 / analyse=0x1:0x111 / me=umh / subme=7 / psy=1 / psy_rd=1.00:0.00 / mixed_ref=0 / me_range=16 / chroma_me=1 / trellis=1 / 8x8dct=0 / cqm=0 / deadzone=21,11 / fast_pskip=0 / chroma_qp_offset=-2 / threads=3 / sliced_threads=0 / nr=0 / decimate=1 / interlaced=0 / bluray_compat=0 / constrained_intra=0 / bframes=0 / weightp=0 / keyint=250 / keyint_min=25 / scenecut=40 / intra_refresh=0 / rc_lookahead=60 / rc=2pass / mbtree=1 / bitrate=500 / ratetol=1.0 / qcomp=0.60 / qpmin=0 / qpmax=69 / qpstep=4 / cplxblur=20.0 / qblur=0.5 / ip_ratio=1.40 / aq=1:1.00
Encoded date : UTC 2013-04-28 13:59:14
Tagged date : UTC 2013-04-28 13:59:45
Audio #2
ID : 2
Format : AAC
Format/Info : Advanced Audio Codec
Format profile : LC
Codec ID : 40
Duration : 41mn 2s
Bit rate mode : Variable
Bit rate : 128 Kbps
Maximum bit rate : 152 Kbps
Channel(s) : 2 channels
Channel positions : Front: L R
Sampling rate : 48.0 KHz
Compression mode : Lossy
Stream size : 37.6 MiB (20%)
Encoded date : UTC 2013-04-28 13:59:41
Tagged date : UTC 2013-04-28 13:59:45

Релиз от:



   Похожие торренты   Торрент   Размер 
В этой теме нет новых непрочитанных сообщений. Легенды о Круге [01-04 из 04] (2013) HDTVRip 720p от GeneralFilm

853 | 325

7.08 ГБ

В этой теме нет новых непрочитанных сообщений. Легенды о Круге [01-04 из 04] (2012) HDTVRip, DVDRip от Youtracker

29 | 29

3.02 ГБ

В этой теме нет новых непрочитанных сообщений. Легенды о Круге [01-04 из 04] (2012) HDTVRip-AVC, DVDRip-AVC от Youtracker

156 | 4

3.02 ГБ

В этой теме нет новых непрочитанных сообщений. Легенды о Круге [01-04 из 04] (2013) SATRip

8324 | 482

2.1 ГБ

В этой теме нет новых непрочитанных сообщений. Легенды о Круге [01-04 из 04] (2013) HDTV 1080i

165 | 39

11.33 ГБ

В этой теме нет новых непрочитанных сообщений. Легенды о Круге [01-04 из 04] (2012) BDRip-AVC от Youtracker

631 | 20

3.65 ГБ

В этой теме нет новых непрочитанных сообщений. Легенды о Круге [01-04 из 04] (2012) BDRip от Youtracker

968 | 107

3.1 ГБ




Вы не можете начинать темы
Вы не можете отвечать на сообщения
Вы не можете редактировать свои сообщения
Вы не можете удалять свои сообщения
Вы не можете добавлять вложения

Перейти:  
Для Мосгорсуда, Роскомнадзора и рекламодателей: mosgorsud-torrent[собачка]yandex.ru
 Вход
ppkBB3cker v.2 © 2008-2014 @ PPK
[ Time : 0.885s | 14 Queries | GZIP : Off ]

Торрент трекер RUTOR.IN, Не можете зайти на rutor.org? Какой новый адрес рутор? Какое зеркало рутор? Не работает rutor.org и зеркала? Тогда наш торрент специально для вас. Rutor.in неофициальное зеркало rutor. В случае если у Вас заблокирован rutor или вдруг Вы не можете на него зайти, то Вы без труда сможете скачать бесплатно и без рекламы последние новинки кино, игр, сериалов и прочего у нас, на Rutor.in. Не нужно использовать прокси, чтобы зайти на рутор, достаточно воспользоваться нашим ресурсом. Все новые фильмы, игры, сериалы, книги и музыка за 2013 и 2014 годы через торрент бесплатно. Скачивайте фильмы в хорошем качестве, игры для пк, xbox, playstation без регистрации. У нас вы найдете новые Зарубежные сериалы и Русские сериалы 2013, 2014, 2015 годов. Оставайтесь с нами, качайте любимые фильмы, игры, сериалы, книги и музыку.