img image001 image001 image001 image001 image001 image001 image001 image001 image001 image001 image001 image001 image001 image001 image001

Planets Sun Sun Sun
Статистика раздачи
Автор: Снежана | Размер: 3.11 ГБ | Добавлен: 25 июл 2013
Раздают: 6    Качают: 2
Скачать торрент
Скачать торрент
Описание торрента

СообщениеДобавлено: 25 июл 2013 

#77

Название: Холостяк
Год выпуска: 2013
Жанр: Комедия, криминал
Режиссёр: Владимир Янковский
В ролях: Владимир Епифанцев, Лилия Мэй, Глеб Сердюков, Михаил Мамаев, Алексей Панин, Андрей Косташ, Игорь Писный, Максим Панькив

Описание: Действие картины разворачивается в Одессе, где происходит убийство криминального авторитета по кличке Шалый. Группировка, в которую входил Шалый, занимается наркотрафиком в Турцию. Руководит всей одесской наркомафией Бурый — неуязвимый бандит, о поимке которого мечтает даже Интерпол. Убийство Шалого означает, что на всю группировку Бурого началась странная охота. Однако кто же руководит отстрелом его людей, Бурый не понимает и не находит ничего лучше, как затаиться.

Производство: Piople Films LLC
Язык: Русский
Продолжительность: 04 х ~ 00:45:00
Субтитры: Украинские (вшитые)



Качество: DVB
Формат: MPEG
Видео: MPEG2, 768х576@704x576 (4:3), 25fps, ~2230 Kbps
Аудио: MP2, 2 ch, 192 Кбит/сек

General
Complete name : Holostyak.2013.DVBHolostyak.2013.DVB_01.seriya.mpg
Format : MPEG-PS
File size : 814 MiB
Duration : 46mn 3s
Overall bit rate mode : Variable
Overall bit rate : 2 471 Kbps

Video
ID : 224 (0xE0)
Format : MPEG Video
Format version : Version 2
Format profile : Main@Main
Format settings, BVOP : Yes
Format settings, Matrix : Custom
Format settings, GOP : Variable
Duration : 46mn 3s
Bit rate mode : Variable
Bit rate : 2 230 Kbps
Maximum bit rate : 15.0 Mbps
Width : 704 pixels
Height : 576 pixels
Display aspect ratio : 4:3
Frame rate : 25.000 fps
Standard : PAL
Color space : YUV
Chroma subsampling : 4:2:0
Bit depth : 8 bits
Scan type : Interlaced
Scan order : Top Field First
Compression mode : Lossy
Bits/(Pixel*Frame) : 0.220
Stream size : 735 MiB (90%)

Audio
ID : 192 (0xC0)
Format : MPEG Audio
Format version : Version 1
Format profile : Layer 2
Duration : 46mn 3s
Bit rate mode : Constant
Bit rate : 192 Kbps
Channel(s) : 2 channels
Sampling rate : 48.0 KHz
Compression mode : Lossy
Stream size : 63.2 MiB (8%)




Релиз от: RG сериалы



   Похожие торренты   Торрент   Размер 
В этой теме нет новых непрочитанных сообщений. Холостяк [01-04 из 04] (2013) SATRip

109 | 4

2.16 ГБ

В этой теме нет новых непрочитанных сообщений. Холостяк [Россия] [01х01-14] (2013) DVB

0 | 2

28.86 ГБ

В этой теме нет новых непрочитанных сообщений. Холостяк [Россия] [02х01] (2013) SATRip

170 | 60

1.25 ГБ

В этой теме нет новых непрочитанных сообщений. Холостяк [Украина] [03x01-12] (2013) SATRip

15 | 13

28.48 ГБ

В этой теме нет новых непрочитанных сообщений. Холостяк [01-4 из 4] (2013) WEB-DLRip (1080p) от MediaClub

12 | 0

6.84 ГБ

В этой теме нет новых непрочитанных сообщений. Холостяк [Россия] [02х10] (2013) SATRip

201 | 15

967.84 МБ

В этой теме нет новых непрочитанных сообщений. Холостяк [Россия] [01х01-15] (2013) SATRip

63 | 37

13.42 ГБ




Вы не можете начинать темы
Вы не можете отвечать на сообщения
Вы не можете редактировать свои сообщения
Вы не можете удалять свои сообщения
Вы не можете добавлять вложения

Перейти:  
Для Мосгорсуда, Роскомнадзора и рекламодателей: mosgorsud-torrent[собачка]yandex.ru
 Вход
ppkBB3cker v.2 © 2008-2014 @ PPK
[ Time : 0.049s | 15 Queries | GZIP : Off ]

cron