img image001 image001 image001 image001 image001 image001 image001 image001 image001 image001 image001 image001 image001 image001 image001

Planets Sun Sun Sun
Статистика раздачи
Автор: Снежана | Размер: 2.91 ГБ | Добавлен: 25 июл 2013
Раздают: 71    Качают: 12
Скачать торрент
Скачать торрент
Описание торрента

СообщениеДобавлено: 25 июл 2013 

#77
Год выпуска: 2004
Выпущено: Россия, Беларусь / Централ Партнершип, Russian TV

Жанр: боевик, военный, история
Продолжительность: 00:49:03 + 00:49:09 + 00:49:09 + 00:49:04

Перевод: не требуется
Оригинальная аудиодорожка: русский
Субтитры: нет

Режиссер: Вячеслав Никифоров

В ролях: Виктория Толстоганова, Алексей Чадов, Владимир Яглыч, Андрей Голубев, Анатолий Кот, Геннадий Гарбук, Анатолий Гущин, Анна Казючиц, Виталий Котовицкий, Дмитрий Лабуш...

Описание: Сюжет картины построен вокруг борьбы за одну из высот на границе бывшего СССР. Время действия — 1944 год. Переломный момент в освобождении территории Советского Союза от фашистов. В полк прибывает пополнение. Кадровый офицер и бывший уголовник, чемпионка по стрельбе и военный переводчик — Война свела их всех на безымянной высоте.
Здесь, в белорусских лесах, одна начнет дуэль с немецким снайпером, другой поведет на смерть роту разведчиков, но прежде они встретят любовь, но для многих эти горькие дни навсегда останутся самыми счастливыми в жизни.





Качество видео: DVDRip [2 х DVD9 R5]
Формат видео: AVI

Видео: 720x400 (16:9), XviD 1663 Кбит/сек 23,976 fps / Бит/(Пиксели*Кадры): 0.241
Аудио: Dolby Digital Audio Russian 448 kbps 5.1 / 48 kHz

Раздача от:
Общее
Полное имя : Na.bezimyannoi.visote.2004.DVDRip_[Youtracker]_by_avproh2.avi
Формат : AVI
Формат/Информация : Audio Video Interleave
Размер файла : 745 Мбайт
Продолжительность : 49 м.
Общий поток : 2119 Кбит/сек
Программа кодирования : VirtualDubMod 1.5.10.3 | www.virtualdub-fr.org || (build 2550/release)
Библиотека кодирования : VirtualDubMod build 2550/release

Видео
Идентификатор : 0
Формат : MPEG-4 Visual
Профиль формата : Advanced Simple@L5
Параметр BVOP формата : 1
Параметр QPel формата : Нет
Параметр GMC формата : Без точки перехода
Параметр матрицы формата : Выборочная
Идентификатор кодека : XVID
Идентификатор кодека/Подсказка : XviD
Продолжительность : 49 м.
Битрейт : 1663 Кбит/сек
Ширина : 720 пикселей
Высота : 400 пикселей
Соотношение сторон : 16:9
Частота кадров : 23,976 кадра/сек
Цветовое пространство : YUV
Субдискретизация насыщенности : 4:2:0
Битовая глубина : 8 бит
Тип развёртки : Прогрессивная
Метод сжатия : С потерями
Бит/(Пиксели*Кадры) : 0.241
Размер потока : 585 Мбайт (78%)
Библиотека кодирования : XviD 65

Аудио
Идентификатор : 1
Формат : AC-3
Формат/Информация : Audio Coding 3
Расширение режима : CM (complete main)
Параметр Endianness формата : Big
Идентификатор кодека : 2000
Продолжительность : 49 м.
Вид битрейта : Постоянный
Битрейт : 448 Кбит/сек
Каналы : 6 каналов
Расположение каналов : Front: L C R, Side: L R, LFE
Частота : 48,0 КГц
Битовая глубина : 16 бит
Метод сжатия : С потерями
Размер потока : 157 Мбайт (21%)
Выравнивание : Разделение по промежуткам
Продолжительность промежутка : 42 мс. (1,00 видеокадр)
Время предзагрузки промежутка : 500 мс.






   Похожие торренты   Торрент   Размер 
В этой теме нет новых непрочитанных сообщений. На Безымянной высоте [01-04 из 04] (2004) DVDRip

559 | 158

2.63 ГБ

В этой теме нет новых непрочитанных сообщений. На безымянной высоте [01-04 из 04] (2004) 2xDVD-9

19 | 8

9.35 ГБ

В этой теме нет новых непрочитанных сообщений. Рыцарь безымянной планеты / The Men Who Fell (2007) DVDRip

12 | 8

1.36 ГБ

В этой теме нет новых непрочитанных сообщений. Рыцарь безымянной планеты / The Men Who Fell (2007) DVDRip

3 | 2

702.35 МБ

В этой теме нет новых непрочитанных сообщений. Диверсант [01-04 из 04] (2004) DVDRip-AVC от Youtracker

274 | 42

3.44 ГБ

В этой теме нет новых непрочитанных сообщений. Диверсант [01-04 из 04] (2004) DVDRip от Youtracker

470 | 42

3.44 ГБ

В этой теме нет новых непрочитанных сообщений. Любовные авантюры [01-06 из 06] (2004) DVDRip-AVC от Youtracker

15 | 20

2.18 ГБ




Вы не можете начинать темы
Вы не можете отвечать на сообщения
Вы не можете редактировать свои сообщения
Вы не можете удалять свои сообщения
Вы не можете добавлять вложения

Перейти:  
Для Мосгорсуда, Роскомнадзора и рекламодателей: mosgorsud-torrent[собачка]yandex.ru
 Вход
ppkBB3cker v.2 © 2008-2014 @ PPK
[ Time : 0.060s | 15 Queries | GZIP : Off ]

cron