img image001 image001 image001 image001 image001 image001 image001 image001 image001 image001 image001 image001 image001 image001 image001

Planets Sun Sun Sun
Статистика раздачи
Автор: Снежана | Размер: 21.19 ГБ | Добавлен: 26 июл 2013
Раздают: 4    Качают: 2
Скачать торрент
Скачать торрент
Описание торрента

СообщениеДобавлено: 26 июл 2013 

#77

Название: Американцы
Оригинальное название: The Americans
Год выпуска: 2013
Жанр: Боевик, триллер, драма, криминал, детектив
Режиссер: Адам Аркин, Гэвин О’Коннор, Томас Шламми
В ролях: Аннет Махендру, Холли Тейлор, Роман Блат, Пол Джуд Летерски, Мэттью Риз, Кери Рассел, Марми Косико, Дэн Флаэрти, Майкл Гэстон, Максимилианно Эрнандез, Келли Сауферлэнд, Давид Вадим, Дэмиен Боско, Чейз Коулмэн, Майкл Дивайн, Ноа Эммерик, Кевин МакКормик, Дэннис Риис, Роман Ройтберг, Хейден Скиген, Айа Терауда, Элисон Райт, Джеймс Эндрю О’Коннор, Кристина Брукато, Мэтт Ньютон

Описание: История о сложном браке двух агентов КГБ, которые под видом американцев заселяются в пригород Вашингтона сразу после того, как президентом избирают Рейгана. Подставной брак Филлипа и Элизабет с каждым днем становится все более настоящим и эмоциональным, несмотря на эскалацию холодной войны и опасные отношения, которые они должны поддерживать с сетью шпионов и информаторов. Напряжение нарастает, когда появляется новый сосед Стэн, агент ФБР, который работает в контрразведке.



Страна: США, DreamWorks Television
Продолжительность: 13 x ~ 01:10:00
Перевод: Профессиональный (многоголосый, закадровый) - NewStudio
Субтитры: нет

Озвучка: Владимир Курдов, Анна Тух, Константин Погодаев
Перевод: weirdie
Подготовка видео: Koss
Работа со звуком: Koss
Постер: Vortex

Качество: WEB-DL 720p
Формат: МКV
Видео: MPEG-4 AVC, ~ 4000 Кбит/с, 1280x718
Аудио rus: AC3, 6 ch, 384 Кбит/с
Аудио eng: AC3, 6 ch, 384 Кбит/с

1. Пилот / Pilot
2. The Clock
3. Gregory
4. In Control
5. Comint
6. Trust Me
7. Duty and Honor
8. Mutually Assured Destruction
09. Safe House
10. Only You
11. Тайная война / Covert War
12. Клятва / The Oath
13. Полковник / The Colonel
Общее
Уникальный идентификатор : 179844597231793370382086928839307231670 (0x874CCF3C579362AA96C650DD771D01B6)
Полное имя : The.Americans.s01.WEBDL.720p.NewStudio.TV.mkv
Формат : Matroska
Версия формата : Version 4 / Version 2
Размер файла : 2,36 Гбайт
Продолжительность : 1 ч. 11 м.
Общий поток : 4747 Кбит/сек
Дата кодирования : UTC 2013-02-02 12:32:23
Программа кодирования : mkvmerge v6.0.0 ('Coming Up For Air') built on Jan 20 2013 09:52:00
Библиотека кодирования : libebml v1.3.0 + libmatroska v1.4.0

Видео
Идентификатор : 1
Формат : AVC
Формат/Информация : Advanced Video Codec
Профиль формата : High@L3.1
Параметр CABAC формата : Нет
Параметр ReFrames формата : 2 кадра
Идентификатор кодека : V_MPEG4/ISO/AVC
Продолжительность : 1 ч. 11 м.
Битрейт : 3884 Кбит/сек
Ширина : 1280 пикселей
Высота : 718 пикселей
Соотношение сторон : 16:9
Режим частоты кадров : Постоянный
Частота кадров : 23,976 кадра/сек
Цветовое пространство : YUV
Субдискретизация насыщенности : 4:2:0
Битовая глубина : 8 бит
Тип развёртки : Прогрессивная
Бит/(Пиксели*Кадры) : 0.176
Размер потока : 1,93 Гбайт (82%)
Язык : English
Default : Да
Forced : Нет
Основные цвета : BT.709
Характеристики трансфера : BT.709
Коэффициенты матрицы : BT.709

Аудио #1
Идентификатор : 2
Формат : AC-3
Формат/Информация : Audio Coding 3
Расширение режима : CM (complete main)
Параметр Endianness формата : Big
Идентификатор кодека : A_AC3
Продолжительность : 1 ч. 11 м.
Вид битрейта : Постоянный
Битрейт : 384 Кбит/сек
Каналы : 6 каналов
Расположение каналов : Front: L C R, Side: L R, LFE
Частота : 48,0 КГц
Битовая глубина : 16 бит
Метод сжатия : С потерями
Размер потока : 195 Мбайт (8%)
Язык : Russian
Default : Да
Forced : Нет

Аудио #2
Идентификатор : 3
Формат : AC-3
Формат/Информация : Audio Coding 3
Расширение режима : CM (complete main)
Параметр Endianness формата : Big
Идентификатор кодека : A_AC3
Продолжительность : 1 ч. 11 м.
Вид битрейта : Постоянный
Битрейт : 384 Кбит/сек
Каналы : 6 каналов
Расположение каналов : Front: L C R, Side: L R, LFE
Частота : 48,0 КГц
Битовая глубина : 16 бит
Метод сжатия : С потерями
Размер потока : 195 Мбайт (8%)
Язык : English
Default : Нет
Forced : Нет


Релиз от:



   Похожие торренты   Торрент   Размер 
В этой теме нет новых непрочитанных сообщений. Американцы / The Americans [S01] (2013) WEB-DL 720p | NewStudio

34 | 65

21.19 ГБ

В этой теме нет новых непрочитанных сообщений. Американцы / The Americans [S01-03] (2013-2015) WEB-DL 720p | NewStudio

24 | 23

62.25 ГБ

В этой теме нет новых непрочитанных сообщений. Американцы / The Americans [S01-04] (2013-2016) WEB-DL 720p | NewStudio

40 | 96

82.22 ГБ

В этой теме нет новых непрочитанных сообщений. Американцы / The Americans [S01] (2013) WEB-DLRip | NewStudio

31 | 42

8.21 ГБ

В этой теме нет новых непрочитанных сообщений. Американцы / The Americans [S01] (2013) WEB-DLRip | NewStudio

122 | 70

8.21 ГБ

В этой теме нет новых непрочитанных сообщений. Американцы / The Americans [S02] (2014) WEB-DL 720p | NewStudio

112 | 190

20.98 ГБ

В этой теме нет новых непрочитанных сообщений. Американцы / The Americans [s03] (2015) WEB-DL 720p | NewStudio

91 | 78

20.09 ГБ




Вы не можете начинать темы
Вы не можете отвечать на сообщения
Вы не можете редактировать свои сообщения
Вы не можете удалять свои сообщения
Вы не можете добавлять вложения

Перейти:  
Для Мосгорсуда, Роскомнадзора и рекламодателей: mosgorsud-torrent[собачка]yandex.ru
 Вход
ppkBB3cker v.2 © 2008-2014 @ PPK
[ Time : 0.057s | 15 Queries | GZIP : Off ]

Торрент трекер RUTOR.IN, Не можете зайти на rutor.org? Какой новый адрес рутор? Какое зеркало рутор? Не работает rutor.org и зеркала? Тогда наш торрент специально для вас. Rutor.in неофициальное зеркало rutor. В случае если у Вас заблокирован rutor или вдруг Вы не можете на него зайти, то Вы без труда сможете скачать бесплатно и без рекламы последние новинки кино, игр, сериалов и прочего у нас, на Rutor.in. Не нужно использовать прокси, чтобы зайти на рутор, достаточно воспользоваться нашим ресурсом. Все новые фильмы, игры, сериалы, книги и музыка за 2013 и 2014 годы через торрент бесплатно. Скачивайте фильмы в хорошем качестве, игры для пк, xbox, playstation без регистрации. У нас вы найдете новые Зарубежные сериалы и Русские сериалы 2013, 2014, 2015 годов. Оставайтесь с нами, качайте любимые фильмы, игры, сериалы, книги и музыку.