img image001 image001 image001 image001 image001 image001 image001 image001 image001 image001 image001 image001 image001 image001 image001

Planets Sun Sun Sun
Статистика раздачи
Автор: Снежана | Размер: 27.05 ГБ | Добавлен: 25 июл 2013
Раздают: 74    Качают: 10
Скачать торрент
Скачать торрент
Описание торрента

СообщениеДобавлено: 25 июл 2013 

#77

Название: Американцы
Оригинальное название: The Americans
Год выпуска: 2013
Жанр: Боевик, триллер, драма, криминал, детектив
Режиссер: Адам Аркин, Гэвин О’Коннор, Томас Шламми
В ролях: Аннет Махендру, Холли Тейлор, Роман Блат, Пол Джуд Летерски, Мэттью Риз, Кери Рассел, Марми Косико, Дэн Флаэрти, Майкл Гэстон, Максимилианно Эрнандез, Келли Сауферлэнд, Давид Вадим, Дэмиен Боско, Чейз Коулмэн, Майкл Дивайн, Ноа Эммерик, Кевин МакКормик, Дэннис Риис, Роман Ройтберг, Хейден Скиген, Айа Терауда, Элисон Райт, Джеймс Эндрю О’Коннор, Кристина Брукато, Мэтт Ньютон

Описание: История о сложном браке двух агентов КГБ, которые под видом американцев заселяются в пригород Вашингтона сразу после того, как президентом избирают Рейгана. Подставной брак Филлипа и Элизабет с каждым днем становится все более настоящим и эмоциональным, несмотря на эскалацию холодной войны и опасные отношения, которые они должны поддерживать с сетью шпионов и информаторов. Напряжение нарастает, когда появляется новый сосед Стэн, агент ФБР, который работает в контрразведке.



Страна: США, DreamWorks Television
Продолжительность: 13 x ~ 01:10:00
Перевод: Профессиональный (многоголосый, закадровый) - NewStudio
Перевод: Профессиональный (двухголосый, закадровый) - Кубик в Кубе - 01-10 серии!
Субтитры: русские (Notabenoid by MuJI), английские - добавляются по мере появления.


Озвучка: Владимир Курдов, Анна Тух, Константин Погодаев
Перевод: weirdie
Работа со звуком: Koss

&
Перевод: El_Brujo
Озвучка: Ольга Кравцова, Руслан Габидуллин
Работа со звуком: ЛП

Качество: WEB-DL 1080p
Формат: МКV
Видео: MPEG-4 AVC, ~ 4600 Кбит/с, 1916x1076 - 01-04 серии.
Видео: MPEG-4 AVC, ~ 4600 Кбит/с, 1912x1072 - 05-08 серии.
Аудио rus: AC3, 6 ch, 384 Кбит/с
Аудио eng: AC3, 6 ch, 384 Кбит/с

1. Пилот / Pilot
2. The Clock
3. Gregory
4. In Control
5. Comint
6. Trust Me
7. Duty and Honor
8. Mutually Assured Destruction
09. Safe House
10. Only You
11. Тайная война / Covert War
12. Клятва / The Oath
13. Полковник / The Colonel
General
Unique ID : 175277698052761166011433679096779612825 (0x83DD41B8D0B79B7EB4466E15041BA299)
Complete name : I:The.Americans.s01.WEBDL.1080p.NewStudio.TVThe.Americans.S01E01.1080p.WEB-DL.DD5.1.H.264.NewStudio.mkv
Format : Matroska
File size : 2.72 GiB
Duration : 1h 11mn
Overall bit rate : 5 475 Kbps
Movie name : The Vampire Diaries [Season 4] (2012) - Release for HDCLUB
Encoded date : UTC 2013-02-02 16:17:29
Writing application : mkvmerge v5.0.0 ('Die Wahre Liebe') built on Sep 25 2011 20:33:49
Writing library : libebml v1.2.2 + libmatroska v1.3.0

Video
ID : 1
Format : AVC
Format/Info : Advanced Video Codec
Format profile : High@L4.0
Format settings, CABAC : Yes
Format settings, ReFrames : 4 frames
Codec ID : V_MPEG4/ISO/AVC
Duration : 1h 11mn
Bit rate : 4 598 Kbps
Width : 1 916 pixels
Height : 1 076 pixels
Display aspect ratio : 16:9
Frame rate : 23.976 fps
Color space : YUV
Chroma subsampling : 4:2:0
Bit depth : 8 bits
Scan type : Progressive
Bits/(Pixel*Frame) : 0.093
Stream size : 2.28 GiB (84%)
Language : English
Color primaries : BT.709-5, BT.1361, IEC 61966-2-4, SMPTE RP177
Transfer characteristics : BT.709-5, BT.1361
Matrix coefficients : BT.709-5, BT.1361, IEC 61966-2-4 709, SMPTE RP177

Audio #1
ID : 2
Format : AC-3
Format/Info : Audio Coding 3
Mode extension : CM (complete main)
Codec ID : A_AC3
Duration : 1h 11mn
Bit rate mode : Constant
Bit rate : 384 Kbps
Channel(s) : 6 channels
Channel positions : Front: L C R, Side: L R, LFE
Sampling rate : 48.0 KHz
Bit depth : 16 bits
Compression mode : Lossy
Stream size : 195 MiB (7%)
Title : NewStudio
Language : Russian

Audio #2
ID : 3
Format : AC-3
Format/Info : Audio Coding 3
Mode extension : CM (complete main)
Codec ID : A_AC3
Duration : 1h 11mn
Bit rate mode : Constant
Bit rate : 384 Kbps
Channel(s) : 6 channels
Channel positions : Front: L C R, Side: L R, LFE
Sampling rate : 48.0 KHz
Bit depth : 16 bits
Compression mode : Lossy
Stream size : 195 MiB (7%)
Language : English

Text
ID : 4
Format : UTF-8
Codec ID : S_TEXT/UTF8
Codec ID/Info : UTF-8 Plain Text





   Похожие торренты   Торрент   Размер 
В этой теме нет новых непрочитанных сообщений. Американцы / The Americans [S01] (2013) BDRip | Кубик в Кубе, NewStudio

52 | 36

14.06 ГБ

В этой теме нет новых непрочитанных сообщений. Американцы / The Americans [01x01-06 из 13] (2015) WEB-DL 1080p | Кубик в Кубе

4 | 2

10.91 ГБ

В этой теме нет новых непрочитанных сообщений. Американцы / The Americans [S01] (2013) WEB-DLRip | Кубик в Кубе

69 | 30

6.45 ГБ

В этой теме нет новых непрочитанных сообщений. Американцы / The Americans [S01] (2013) WEB-DLRip | Кубик в Кубе

42 | 2

12.34 ГБ

В этой теме нет новых непрочитанных сообщений. Американцы / The Americans [01x01-06 из 13] (2015) WEB-DLRip | Кубик в Кубе

2 | 4

5.79 ГБ

В этой теме нет новых непрочитанных сообщений. Американцы / The Americans [S02] (2014) WEB-DLRip от super12308 | Кубик в Кубе

115 | 87

7.98 ГБ

В этой теме нет новых непрочитанных сообщений. Американцы / The Americans [01x01-06 из 13] (2015) WEB-DLRip | Кубик в Кубе

17 | 22

3.22 ГБ




Вы не можете начинать темы
Вы не можете отвечать на сообщения
Вы не можете редактировать свои сообщения
Вы не можете удалять свои сообщения
Вы не можете добавлять вложения

Перейти:  
Для Мосгорсуда, Роскомнадзора и рекламодателей: mosgorsud-torrent[собачка]yandex.ru
 Вход
ppkBB3cker v.2 © 2008-2014 @ PPK
[ Time : 0.066s | 14 Queries | GZIP : Off ]

Торрент трекер RUTOR.IN, Не можете зайти на rutor.org? Какой новый адрес рутор? Какое зеркало рутор? Не работает rutor.org и зеркала? Тогда наш торрент специально для вас. Rutor.in неофициальное зеркало rutor. В случае если у Вас заблокирован rutor или вдруг Вы не можете на него зайти, то Вы без труда сможете скачать бесплатно и без рекламы последние новинки кино, игр, сериалов и прочего у нас, на Rutor.in. Не нужно использовать прокси, чтобы зайти на рутор, достаточно воспользоваться нашим ресурсом. Все новые фильмы, игры, сериалы, книги и музыка за 2013 и 2014 годы через торрент бесплатно. Скачивайте фильмы в хорошем качестве, игры для пк, xbox, playstation без регистрации. У нас вы найдете новые Зарубежные сериалы и Русские сериалы 2013, 2014, 2015 годов. Оставайтесь с нами, качайте любимые фильмы, игры, сериалы, книги и музыку.