img image001 image001 image001 image001 image001 image001 image001 image001 image001 image001 image001 image001 image001 image001 image001

Planets Sun Sun Sun
Статистика раздачи
Автор: Снежана | Размер: 4.36 ГБ | Добавлен: 25 июл 2013
Раздают: 4    Качают: 6
Скачать торрент
Скачать торрент
Описание торрента

СообщениеДобавлено: 25 июл 2013 

[imgright]http://i46.fastpic.ru/big/2013/0507/6c/31f13b73d85a695e914b69929d378c6c.jpg" style="float:right;[/imgright]Год выпуска: 2012
Производство: Россия, KoBura Film
Жанр: Боевик, мелодрама
Продолжительность: ~ 00:43:00
Субтитры: нет
Режиссёр: Богдан Дробязко
В ролях: Александр Носик, Екатерина Вуличенко, Елена Захарова, Ян Цапник, Сергей Баталов, Олег Комаров (II), Ксения Буравская, Сергей Дорогов, Владимир Носик, Леонид Громов, Дмитрий Калистратов, Александр Кузнецов, Андрей Фиронов, Алексей Симонов, Анастасия Дубровина, Лилия Разакова, Виктория Куликова, Константин Удалов
Описание: Майор-штабист Ковальский, зять столичного генерала, волею случая и своего лучшего друга и сослуживца Остроумова попадает из столицы в глухомань: пограничную заставу на российско-финской границе. Там чистенькому столичному штабисту приходится нелегко. Но он сумеет доказать всем, что он достоин звания российского солдата.
Доп. Информация: Любая реклама ОТСУТСТВУЕТ!!!

Сэмпл
Качество: IPTVRip - AVC
Формат: MKV
Видео кодек: H.264
Аудио кодек: AC3
Видео: x264, 716 х 428**764 х 428 (16:9), 25,000 кадр/сек, ~ 1618 Кбит/сек, ~ 0.211 bit/pixel
Аудио: AC3, 48.0 KHz, 2 канала(ов), 192 kbs
Релиз:
Complete name : Берега.01 серия.2012.IPTVRip-AVC.Metla111.mkv
Format : Matroska
Format version : Version 2
File size : 557 MiB
Duration : 43mn 1s
Overall bit rate : 1 812 Kbps
Encoded date : UTC 2013-02-24 19:06:42
Writing application : mkvmerge v5.8.0 ('No Sleep / Pillow') built on Sep 2 2012 15:37:04
Writing library : libebml v1.2.3 + libmatroska v1.3.0

Video
ID : 1
Format : AVC
Format/Info : Advanced Video Codec
Format profile : High@L3.1
Format settings, CABAC : Yes
Format settings, ReFrames : 10 frames
Codec ID : V_MPEG4/ISO/AVC
Duration : 43mn 1s
Bit rate : 1 618 Kbps
Width : 716 pixels
Height : 428 pixels
Display aspect ratio : 16:9
Original display aspect ratio : 16:9
Frame rate mode : Constant
Frame rate : 25.000 fps
Color space : YUV
Chroma subsampling : 4:2:0
Bit depth : 8 bits
Scan type : Progressive
Bits/(Pixel*Frame) : 0.211
Stream size : 487 MiB (87%)
Default : Yes
Forced : No
Color primaries : BT.601 PAL
Transfer characteristics : BT.470 System B, BT.470 System G
Matrix coefficients : BT.601

Audio
ID : 2
Format : AC-3
Format/Info : Audio Coding 3
Mode extension : CM (complete main)
Format settings, Endianness : Big
Codec ID : A_AC3
Duration : 43mn 1s
Bit rate mode : Constant
Bit rate : 192 Kbps
Channel(s) : 2 channels
Channel positions : Front: L R
Sampling rate : 48.0 KHz
Bit depth : 16 bits
Compression mode : Lossy
Stream size : 59.1 MiB (11%)
Default : Yes
Forced : No


Сравнение с http://alt.rutor.org/torrent/257968/berega-01-08-iz-08-2012-satrip-ot-files-x
http://screenshotcomparison.com/comparison/9909/picture:2



   Похожие торренты   Торрент   Размер 
В этой теме нет новых непрочитанных сообщений. У реки два берега. Продолжение [01-04 из 04] (2011) IPTVRip - KinoZalSat

43 | 9

2.16 ГБ

В этой теме нет новых непрочитанных сообщений. Берега [01-08 из 08] (2012) HDTVRip

32 | 7

4.3 ГБ

В этой теме нет новых непрочитанных сообщений. Берега изобилия (2012) PC

270 | 3

139.26 МБ

В этой теме нет новых непрочитанных сообщений. Берега [01-08 из 08] (2012) HDTV 1080i

2 | 3

20.56 ГБ

В этой теме нет новых непрочитанных сообщений. Берега [01-08 из 08] (2012) SATRip от Files-x

46 | 7

4.3 ГБ

В этой теме нет новых непрочитанных сообщений. Берега [01-08 из 08] (2012) HDTVRip 720p

0 | 4

9.82 ГБ

В этой теме нет новых непрочитанных сообщений. Берега [01-08 из 08] (2012) DVDRip от NovaLan

54 | 33

3.92 ГБ




Вы не можете начинать темы
Вы не можете отвечать на сообщения
Вы не можете редактировать свои сообщения
Вы не можете удалять свои сообщения
Вы не можете добавлять вложения

Перейти:  
Для Мосгорсуда, Роскомнадзора и рекламодателей: mosgorsud-torrent[собачка]yandex.ru
 Вход
ppkBB3cker v.2 © 2008-2014 @ PPK
[ Time : 0.064s | 14 Queries | GZIP : Off ]

Торрент трекер RUTOR.IN, Не можете зайти на rutor.org? Какой новый адрес рутор? Какое зеркало рутор? Не работает rutor.org и зеркала? Тогда наш торрент специально для вас. Rutor.in неофициальное зеркало rutor. В случае если у Вас заблокирован rutor или вдруг Вы не можете на него зайти, то Вы без труда сможете скачать бесплатно и без рекламы последние новинки кино, игр, сериалов и прочего у нас, на Rutor.in. Не нужно использовать прокси, чтобы зайти на рутор, достаточно воспользоваться нашим ресурсом. Все новые фильмы, игры, сериалы, книги и музыка за 2013 и 2014 годы через торрент бесплатно. Скачивайте фильмы в хорошем качестве, игры для пк, xbox, playstation без регистрации. У нас вы найдете новые Зарубежные сериалы и Русские сериалы 2013, 2014, 2015 годов. Оставайтесь с нами, качайте любимые фильмы, игры, сериалы, книги и музыку.